<?xml version="1.0" standalone="no"?>
<!DOCTYPE svg PUBLIC "-//W3C//DTD SVG 1.1//EN" "http://www.w3.org/Graphics/SVG/1.1/DTD/svg11.dtd">
<svg xmlns="http://www.w3.org/2000/svg">
<defs >
<font id="Palanquin" horiz-adv-x="794" ><font-face
    font-family="Palanquin"
    units-per-em="1000"
    panose-1="2 11 0 4 2 2 3 2 2 4"
    ascent="1320"
    descent="-491"
    alphabetic="0" />
<glyph unicode=" " glyph-name="space" horiz-adv-x="236" />
<glyph unicode="!" glyph-name="exclam" horiz-adv-x="229" d="M159 702L143 196L86 223L69 702H159ZM114 107Q137 107 152 92T168 54Q168 31 153 16T114 0Q92 0 76 15T59 54Q59 76 75 91T114 107Z" />
<glyph unicode="&quot;" glyph-name="quotedbl" horiz-adv-x="291" d="M230 712Q252 712 268 695T284 648Q284 601 255 554T183 484L162 521Q187 539 202 557T222 604Q203 605 190 621T176 657Q176 679 191 695T230 712ZM74 712Q96 712 112 695T128 648Q128 601
99 554T26 484L6 521Q30 539 45 557T65 604Q46 605 33 621T19 657Q19 679 35 695T74 712Z" />
<glyph unicode="#" glyph-name="numbersign" horiz-adv-x="501" d="M442 506L412 380H472L480 319H397L367 192H472L480 131H353L321 -3L257 2L287 131H154L123 -3L58 2L88 131H30L21 192H103L132 319H30L21 380H148L177 506H243L213 380H346L375 506H442ZM199
319L169 192H301L331 319H199Z" />
<glyph unicode="$" glyph-name="dollar" horiz-adv-x="538" d="M351 802V684Q377 679 399 671T441 654Q435 638 428 623T414 592Q387 605 354 616T269 628Q204 628 166 601T127 526Q127 415 307 365T488 166Q488 109 452 65T351 0V-115Q336 -114 322 -113T293
-110V-10Q283 -11 272 -12T248 -13H229V-115H172V-4Q136 3 105 13T61 33Q65 48 70 63T80 95Q107 82 152 68T247 54Q326 54 368 84T410 164Q410 271 230 320T50 524Q50 577 82 619T172 680V802L229 798V692Q239 693 249 694T267 696Q274 696 280 696T293 694V802H351Z"
/>
<glyph unicode="%" glyph-name="percent" horiz-adv-x="860" d="M620 706L314 -4L238 0L543 710L620 706ZM31 532Q31 610 77 656T189 702Q258 702 303 658T348 532Q348 454 302 409T190 363Q121 363 76 407T31 532ZM105 532Q105 476 130 450T190 424Q220 424 247
449T274 532Q274 589 249 614T189 640Q159 640 132 615T105 532ZM512 169Q512 247 558 292T671 338Q739 338 783 294T828 169Q828 91 782 46T671 0Q602 0 557 44T512 169ZM587 169Q587 112 612 87T671 61Q701 61 727 86T754 169Q754 225 729 251T671 277Q640 277
614 252T587 169Z" />
<glyph unicode="&amp;" glyph-name="ampersand" horiz-adv-x="682" d="M138 212Q138 131 192 94T314 56Q365 56 405 73T473 121L267 308Q253 322 237 336T210 361Q176 339 158 300T138 212ZM455 593Q428 606 401 617T323 629Q272 629 242 596T212 522Q212 474
238 441T313 362L511 177Q529 213 539 256T553 351L617 325Q614 268 602 218T568 126L650 51L609 -4L527 70Q492 31 439 9T314 -13Q207 -12 132 44T57 210Q58 275 88 329T165 414Q150 435 143 460T135 516Q135 588 184 642T323 696Q373 696 411 683T483 654L455
593Z" />
<glyph unicode="&apos;" glyph-name="quotesingle" horiz-adv-x="135" d="M74 712Q96 712 112 695T128 648Q128 601 99 554T26 484L6 521Q30 539 45 557T65 604Q46 605 33 621T19 657Q19 679 35 695T74 712Z" />
<glyph unicode="(" glyph-name="parenleft" horiz-adv-x="251" d="M170 -38Q109 42 79 139T49 320Q49 404 78 499T170 677L235 654Q191 604 159 499T127 321Q127 247 159 140T234 -15L170 -38Z" />
<glyph unicode=")" glyph-name="parenright" horiz-adv-x="251" d="M80 677Q140 597 170 501T201 320Q201 236 171 140T80 -38L16 -15Q59 34 91 140T123 319Q123 393 91 499T16 653L80 677Z" />
<glyph unicode="*" glyph-name="asterisk" horiz-adv-x="342" d="M203 661L320 686L337 634L220 611L301 494L256 459L172 572L88 459L41 494L123 611Q117 612 65 622T6 634L22 686L139 661Q139 667 139 716T140 772H202L203 661Z" />
<glyph unicode="+" glyph-name="plus" horiz-adv-x="514" d="M495 242H295V4L221 8V242H28L20 304H221V534L295 531V304H485L495 242Z" />
<glyph unicode="," glyph-name="comma" horiz-adv-x="152" d="M82 107Q105 107 121 90T137 45Q137 -4 108 -51T35 -120L14 -82Q39 -65 55 -46T74 1Q56 2 42 18T28 54Q28 75 44 91T82 107Z" />
<glyph unicode="-" glyph-name="hyphen" horiz-adv-x="292" d="M276 242H25L16 305H267L276 242Z" />
<glyph unicode="." glyph-name="period" horiz-adv-x="137" d="M69 107Q91 107 106 92T122 54Q122 31 107 16T69 0Q46 0 30 15T14 54Q14 76 30 91T69 107Z" />
<glyph unicode="/" glyph-name="slash" horiz-adv-x="394" d="M388 706L82 -4L6 0L311 710L388 706Z" />
<glyph unicode="0" glyph-name="zero" horiz-adv-x="608" d="M59 287Q59 423 127 501T304 579Q413 579 480 504T547 288Q547 152 478 70T304 -13Q197 -13 128 67T59 287ZM138 290Q138 179 185 117T304 55Q373 55 421 117T469 285Q469 395 423 453T304 512Q233
512 186 454T138 290Z" />
<glyph unicode="1" glyph-name="one" horiz-adv-x="396" d="M343 0H72L63 60H170V471Q153 459 136 448T101 425Q91 438 82 452T64 479L197 566H250V60H335Q337 44 339 30T343 0Z" />
<glyph unicode="2" glyph-name="two" horiz-adv-x="494" d="M227 579Q336 579 379 523T423 408Q423 351 386 303T277 191L130 62H433L443 0H31V59L234 243Q297 300 321 334T345 408Q345 454 315 484T225 514Q178 514 136 490T92 465L57 522Q65 527 111 553T227 579Z" />
<glyph unicode="3" glyph-name="three" horiz-adv-x="517" d="M240 579Q341 579 391 529T442 414Q442 362 411 323T336 269Q385 257 419 214T454 110Q454 32 392 -22T225 -76Q170 -76 118 -59T28 -21L70 33Q106 11 141 0T228 -12Q284 -12 329 19T375 108Q375 168
332 203T190 238H166L154 297H196Q274 297 318 328T363 413Q363 453 329 483T237 514Q185 514 145 498T80 465L41 517Q83 544 131 561T240 579Z" />
<glyph unicode="4" glyph-name="four" horiz-adv-x="556" d="M516 70H421V-69H341V70H42L31 135L366 571H421V135H525L516 70ZM116 135H341V433L116 135Z" />
<glyph unicode="5" glyph-name="five" horiz-adv-x="538" d="M85 224L101 566H442L432 501H173L164 305Q188 320 215 328T268 337Q379 337 429 277T480 134Q480 47 419 -14T245 -76Q190 -76 138 -59T49 -22L90 34Q127 13 162 1T249 -11Q317 -11 359 28T401 134Q401
200 365 236T272 272Q233 272 204 255T161 224H85Z" />
<glyph unicode="6" glyph-name="six" horiz-adv-x="545" d="M497 193Q497 113 441 50T295 -13Q191 -13 125 57T59 261Q59 371 140 489T350 634L383 585Q294 564 230 492T147 332Q174 356 212 374T293 392Q387 392 442 332T497 193ZM422 188Q422 243 387 287T292
331Q238 331 198 304T138 242Q141 157 179 105T292 53Q351 53 386 94T422 188Z" />
<glyph unicode="7" glyph-name="seven" horiz-adv-x="488" d="M58 -45L363 501H59L49 566H434L460 531L133 -69L58 -45Z" />
<glyph unicode="8" glyph-name="eight" horiz-adv-x="556" d="M503 173Q503 98 445 43T278 -13Q168 -13 110 42T52 173Q52 226 91 276T183 339Q139 357 109 393T79 478Q79 543 130 593T278 643Q374 643 425 593T476 478Q476 429 445 393T373 339Q423 326 463 280T503
173ZM156 476Q155 436 187 406T278 366Q336 375 368 406T400 476Q400 517 369 548T275 579Q216 579 186 548T156 476ZM129 171Q129 117 172 84T278 51Q338 51 382 84T426 171Q426 222 389 260T278 309Q203 299 166 261T129 171Z" />
<glyph unicode="9" glyph-name="nine" horiz-adv-x="545" d="M47 372Q47 452 103 515T250 579Q354 579 419 509T484 304Q484 194 404 76T195 -69L160 -18Q250 1 313 74T396 233Q369 210 331 192T252 174Q157 174 102 234T47 372ZM123 378Q123 323 157 279T252
235Q306 235 346 262T406 323Q402 408 365 460T253 513Q193 513 158 472T123 378Z" />
<glyph unicode=":" glyph-name="colon" horiz-adv-x="137" d="M68 457Q91 457 106 441T122 402Q122 380 107 364T68 348Q46 348 30 364T14 402Q14 424 30 440T68 457ZM68 135Q91 135 106 120T122 81Q122 58 107 43T68 27Q46 27 30 42T14 81Q14 104 30 119T68 135Z" />
<glyph unicode=";" glyph-name="semicolon" horiz-adv-x="154" d="M84 457Q106 457 122 441T138 402Q138 380 122 364T84 348Q61 348 45 364T29 402Q29 424 45 440T84 457ZM82 135Q105 135 121 118T137 71Q137 24 108 -23T35 -93L14 -55Q39 -38 55 -19T74 28Q56
29 42 44T28 81Q28 103 44 119T82 135Z" />
<glyph unicode="&lt;" glyph-name="less" horiz-adv-x="321" d="M267 19L11 220V270L267 470L290 410L86 245L290 80L267 19Z" />
<glyph unicode="=" glyph-name="equal" horiz-adv-x="484" d="M463 319H30L21 380H455L463 319ZM463 131H30L21 192H455L463 131Z" />
<glyph unicode="&gt;" glyph-name="greater" horiz-adv-x="321" d="M310 219L54 19L31 79L235 245Q184 285 133 327T31 410L54 470L310 270V219Z" />
<glyph unicode="?" glyph-name="question" horiz-adv-x="400" d="M194 702Q293 702 339 655T385 534Q385 478 337 422T208 328L198 149L140 172L132 368Q208 393 257 436T307 533Q307 586 278 610T192 634Q143 634 104 618T24 572L13 642Q54 668 95 685T194 702ZM167
107Q189 107 205 92T221 54Q221 31 205 16T167 0Q144 0 129 15T113 54Q113 76 128 91T167 107Z" />
<glyph unicode="@" glyph-name="at" horiz-adv-x="801" d="M537 415L562 385Q544 234 541 206T538 177Q538 146 554 135T587 124Q628 124 655 170T683 298Q683 401 617 467T439 534Q316 534 222 448T127 216Q127 97 202 29T385 -39Q425 -39 470 -31T549 -4L569
-63Q524 -86 474 -95T374 -104Q251 -104 152 -17T52 216Q52 370 156 483T441 596Q577 596 664 513T751 304Q751 184 704 124T580 63Q556 63 535 71T499 96Q481 84 456 74T405 64Q321 64 280 106T239 214Q239 306 308 360T464 415H537ZM404 124Q427 124 445 133T474
157Q473 161 473 167T472 178Q472 220 480 264T495 359H453Q397 357 355 318T313 214Q313 182 333 153T404 124Z" />
<glyph unicode="A" glyph-name="A" horiz-adv-x="601" d="M295 575L176 257H418L295 575ZM334 680L595 12L516 0L441 193H154L83 0H6L257 680H334Z" />
<glyph unicode="B" glyph-name="B" horiz-adv-x="616" d="M279 680Q384 680 451 641T518 500Q518 452 495 418T434 364Q492 344 528 302T565 191Q565 87 492 44T313 0H100V680H279ZM275 613H178V384H271Q343 385 390 409T437 498Q437 569 393 591T275 613ZM322
320H178V66H312Q384 66 434 92T484 189Q484 258 440 289T322 320Z" />
<glyph unicode="C" glyph-name="C" horiz-adv-x="598" d="M514 597Q480 610 450 618T369 626Q269 625 211 545T152 337Q152 221 201 138T360 54Q411 54 446 63T510 85L540 25Q509 9 458 -2T364 -14Q207 -14 138 90T69 336Q69 487 145 590T369 694Q400 694 453
685T539 655L514 597Z" />
<glyph unicode="D" glyph-name="D" horiz-adv-x="695" d="M99 0V680H328Q485 680 555 582T625 344Q625 198 548 99T321 0H99ZM331 612H178V66H322Q423 66 485 139T547 343Q547 460 494 536T331 612Z" />
<glyph unicode="E" glyph-name="E" horiz-adv-x="538" d="M99 0V680H471Q473 665 475 650T480 620H178V377H374Q376 362 378 347T383 317H178V62H500L509 0H99Z" />
<glyph unicode="F" glyph-name="F" horiz-adv-x="486" d="M373 313H178V0H100V680H458L468 621H178V372H363L373 313Z" />
<glyph unicode="G" glyph-name="G" horiz-adv-x="657" d="M362 349H581V49Q581 45 581 41T580 33L581 32Q550 13 494 0T390 -14Q234 -14 152 86T69 336Q69 496 159 595T399 694Q430 694 484 685T570 655L545 597Q511 610 482 618T401 626Q298 626 225 551T152
337Q152 206 215 130T389 54Q424 54 453 60T505 74V290H355Q356 305 358 320T362 349Z" />
<glyph unicode="H" glyph-name="H" horiz-adv-x="677" d="M498 0V311H178V0H99V680L178 685V374H498V680H577V0H498Z" />
<glyph unicode="I" glyph-name="I" horiz-adv-x="278" d="M99 0V680H178V0H99Z" />
<glyph unicode="J" glyph-name="J" horiz-adv-x="282" d="M103 146V680H182V128Q182 65 155 34T50 -22Q43 -8 35 6T19 33Q70 52 86 71T103 146Z" />
<glyph unicode="K" glyph-name="K" horiz-adv-x="611" d="M507 0L249 331L175 246V0H96V680H175V350Q248 436 322 522T468 695Q481 683 495 672T522 648Q467 583 411 519T299 390L603 0H507Z" />
<glyph unicode="L" glyph-name="L" horiz-adv-x="516" d="M498 0H100V680H178V63H489L498 0Z" />
<glyph unicode="M" glyph-name="M" horiz-adv-x="777" d="M380 224L178 514V0H100V680H146L391 333L627 680H677V0H597V512L407 229L380 224Z" />
<glyph unicode="N" glyph-name="N" horiz-adv-x="713" d="M99 0V680H162L493 220L534 153V680H614V0H551L204 489L178 533V0H99Z" />
<glyph unicode="O" glyph-name="O" horiz-adv-x="737" d="M69 337Q69 488 146 590T371 696Q528 696 598 591T669 345Q669 199 592 94T366 -14Q209 -14 139 91T69 337ZM152 338Q152 220 203 137T364 54Q465 54 524 133T584 344Q584 462 533 544T372 626Q272 626
212 546T152 338Z" />
<glyph unicode="P" glyph-name="P" horiz-adv-x="584" d="M100 0V680H285Q392 680 464 633T536 472Q535 360 458 309T274 257H178V0H100ZM285 613H178V324H278Q352 324 402 357T454 469Q454 551 409 582T285 613Z" />
<glyph unicode="Q" glyph-name="Q" horiz-adv-x="737" d="M606 -20L539 43Q505 16 461 2T366 -14Q209 -14 139 91T69 337Q69 488 146 590T371 696Q528 696 598 591T669 345Q669 270 648 203T585 86L653 21L606 -20ZM152 338Q152 220 203 137T364 54Q399 54 429
64T484 94L386 186L441 228L529 141Q555 178 569 230T584 344Q584 462 533 544T372 626Q272 626 212 546T152 338Z" />
<glyph unicode="R" glyph-name="R" horiz-adv-x="631" d="M285 613H178V344H278Q350 344 402 373T454 479Q454 559 407 586T285 613ZM502 0L345 283Q328 281 311 280T274 279H178V0H100V680H285Q392 680 464 635T536 482Q535 413 502 370T415 304L589 0H502Z" />
<glyph unicode="S" glyph-name="S" horiz-adv-x="538" d="M80 95Q107 82 152 68T247 54Q326 54 368 84T410 164Q410 272 230 321T50 524Q50 596 108 646T267 696Q318 696 363 683T441 654Q435 638 428 623T414 592Q388 605 355 616T272 627Q209 627 168 601T127
526Q127 415 307 365T488 166Q488 88 426 38T248 -13Q205 -13 143 2T61 33Q65 48 70 63T80 95Z" />
<glyph unicode="T" glyph-name="T" horiz-adv-x="531" d="M521 617H302V0H222V617H9V680H512L521 617Z" />
<glyph unicode="U" glyph-name="U" horiz-adv-x="692" d="M169 250Q169 163 216 109T345 54Q429 54 475 109T521 250V680H601V241Q601 131 533 60T345 -11Q227 -11 159 60T90 241V680H169V250Z" />
<glyph unicode="V" glyph-name="V" horiz-adv-x="601" d="M266 0L6 667L83 680L304 103L518 680H595L343 0H266Z" />
<glyph unicode="W" glyph-name="W" horiz-adv-x="970" d="M670 0L483 556L307 0H228L6 667L83 680L267 110L448 680H523L710 110L888 680H965L748 0H670Z" />
<glyph unicode="X" glyph-name="X" horiz-adv-x="641" d="M17 2L270 344L32 667L112 680L325 390L540 680H625L366 333L611 0H525L312 287Q300 270 203 138T94 -10L17 2Z" />
<glyph unicode="Y" glyph-name="Y" horiz-adv-x="561" d="M238 0L239 273L6 667L88 680L278 351L472 680H556L319 277L318 0H238Z" />
<glyph unicode="Z" glyph-name="Z" horiz-adv-x="569" d="M530 0H31L22 62Q129 201 236 340T451 617H61Q59 633 56 648T50 680H531L539 617Q432 479 324 340T109 62H522L530 0Z" />
<glyph unicode="[" glyph-name="bracketleft" horiz-adv-x="271" d="M80 696H265L254 636H155V-29H254L265 -88H80V696Z" />
<glyph unicode="\" glyph-name="backslash" horiz-adv-x="394" d="M311 -4L6 706L82 710L388 0L311 -4Z" />
<glyph unicode="]" glyph-name="bracketright" horiz-adv-x="271" d="M190 -88H6Q8 -73 10 -59T16 -29H115V636H16Q13 651 11 666T6 696H190V-88Z" />
<glyph unicode="^" glyph-name="asciicircum" horiz-adv-x="431" d="M93 143H14L183 390H247L416 143H338L216 322L93 143Z" />
<glyph unicode="_" glyph-name="underscore" horiz-adv-x="412" d="M396 0H25L16 63H387L396 0Z" />
<glyph unicode="`" glyph-name="grave" horiz-adv-x="178" d="M16 745H103L163 589H103L16 745Z" />
<glyph unicode="a" glyph-name="a" horiz-adv-x="504" d="M124 138Q124 107 145 79T215 51Q257 51 292 72T352 122V233H224Q175 233 150 205T124 138ZM82 455Q110 474 161 486T242 498Q326 498 378 453T431 334V0H383L362 49Q337 26 297 7T217 -12Q133 -12 92
30T51 138Q51 210 99 247T226 285H351Q351 345 332 387T245 429Q196 429 164 418T105 395Q100 410 94 425T82 455Z" />
<glyph unicode="b" glyph-name="b" horiz-adv-x="552" d="M80 0V695L159 706V450Q188 472 223 485T290 499Q397 499 449 426T501 243Q501 132 449 60T290 -12Q254 -12 216 2T146 42Q142 32 137 21T127 0H80ZM159 105Q187 80 218 67T278 54Q356 54 389 109T422
242Q422 323 390 377T278 432Q250 432 219 419T159 380V105Z" />
<glyph unicode="c" glyph-name="c" horiz-adv-x="469" d="M275 431Q201 431 166 378T130 245Q130 163 163 109T271 54Q320 54 345 64T398 88L422 30Q391 10 347 -1T272 -13Q162 -13 106 59T49 244Q50 355 108 426T277 498Q306 498 350 487T426 454L402 397Q374
410 349 420T275 431Z" />
<glyph unicode="d" glyph-name="d" horiz-adv-x="554" d="M274 432Q195 432 163 377T130 243Q130 162 162 109T274 55Q302 55 334 68T394 107V379Q366 404 334 418T274 432ZM474 705V0H427L406 44Q375 19 336 3T260 -13Q154 -13 102 59T49 242Q49 354 102 426T262
499Q293 499 329 486T394 450V696L474 705Z" />
<glyph unicode="e" glyph-name="e" horiz-adv-x="528" d="M483 230H131Q134 153 172 103T292 52Q341 52 371 62T430 86L455 28Q424 7 374 -2T294 -12Q173 -12 111 59T49 244Q50 354 108 426T275 498Q388 498 435 419T483 230ZM405 284Q397 349 366 390T272 431Q209
431 175 390T133 284H405Z" />
<glyph unicode="f" glyph-name="f" horiz-adv-x="309" d="M91 552Q91 621 127 661T226 702Q247 702 268 696T300 684L282 621Q274 625 261 628T238 631Q201 631 186 608T170 548V475H259L285 414H170V0H91V414H18L17 475H91V552Z" />
<glyph unicode="g" glyph-name="g" horiz-adv-x="554" d="M394 379Q366 404 334 418T273 432Q195 432 163 377T130 243Q130 162 161 108T273 54Q301 54 333 68T394 107V379ZM474 -39Q474 -115 422 -166T265 -217Q235 -217 184 -206T102 -172L126 -115Q156 -128
185 -140T263 -152Q323 -152 358 -124T394 -38V36Q365 14 329 1T260 -12Q154 -12 102 59T49 242Q49 353 102 426T262 499Q297 499 336 483T406 441Q411 451 416 462T426 485H474V-39Z" />
<glyph unicode="h" glyph-name="h" horiz-adv-x="560" d="M159 421Q190 454 236 476T324 499Q408 499 447 451T487 329V1H408V318Q408 367 385 399T310 432Q279 432 235 411T159 353V0H80V696L159 706V421Z" />
<glyph unicode="i" glyph-name="i" horiz-adv-x="238" d="M118 581Q95 581 80 596T65 635Q64 657 79 672T118 688Q140 688 156 673T173 635Q173 612 157 597T118 581ZM79 0V485H159V0H79Z" />
<glyph unicode="j" glyph-name="j" horiz-adv-x="243" d="M123 581Q100 581 85 596T69 635Q69 657 84 672T123 688Q145 688 161 673T177 635Q177 612 161 597T123 581ZM83 -30V485H163V9Q163 -87 139 -134T19 -212L-11 -155Q39 -136 61 -111T83 -30Z" />
<glyph unicode="k" glyph-name="k" horiz-adv-x="493" d="M159 182V0H80V695L159 706V276L379 498L427 447L279 300Q328 225 379 150T479 0H386Q346 62 306 124T226 249L159 182Z" />
<glyph unicode="l" glyph-name="l" horiz-adv-x="239" d="M80 0V695L159 706V0H80Z" />
<glyph unicode="m" glyph-name="m" horiz-adv-x="855" d="M451 420Q482 453 529 476T619 499Q703 499 743 451T783 329V1H703V318Q703 367 679 399T605 432Q573 432 537 414T468 363Q469 354 469 346T470 329V1H390V318Q390 367 367 399T294 432Q261 432 225 415T157
363V0H78V485H126L149 430Q181 460 224 479T307 499Q361 499 397 478T451 420Z" />
<glyph unicode="n" glyph-name="n" horiz-adv-x="559" d="M151 415Q182 450 231 474T323 499Q406 499 446 451T486 329V1H407V318Q407 367 383 399T309 432Q278 432 234 411T157 353V0H78V485H126L151 415Z" />
<glyph unicode="o" glyph-name="o" horiz-adv-x="543" d="M264 -13Q157 -12 103 60T49 245Q50 355 108 426T274 498Q384 498 438 425T493 239Q492 128 432 58T264 -13ZM414 239Q414 322 383 376T276 430Q202 430 167 379T130 246Q130 161 160 108T265 55Q340 55
376 105T414 239Z" />
<glyph unicode="p" glyph-name="p" horiz-adv-x="552" d="M159 105Q187 80 218 67T278 54Q356 54 389 109T422 242Q422 323 390 377T278 432Q250 432 219 419T159 380V105ZM80 -219V485H127L145 442Q176 466 215 482T290 499Q397 499 449 426T501 243Q501 132
449 60T290 -12Q258 -12 223 0T159 35V-208L80 -219Z" />
<glyph unicode="q" glyph-name="q" horiz-adv-x="554" d="M474 485V-208L394 -219V37Q365 15 329 1T260 -13Q154 -13 102 59T49 242Q49 354 102 426T262 499Q297 499 336 483T407 441L427 485H474ZM274 432Q195 432 163 377T130 243Q130 162 162 109T274 55Q302
55 334 68T394 107V379Q366 404 334 418T274 432Z" />
<glyph unicode="r" glyph-name="r" horiz-adv-x="330" d="M78 0V485H126L150 417Q177 440 219 462T301 485Q305 469 310 454T320 422Q277 422 233 399T157 343V0H78Z" />
<glyph unicode="s" glyph-name="s" horiz-adv-x="446" d="M354 397Q330 409 299 420T225 431Q181 431 155 413T128 364Q128 336 158 317T237 281Q296 260 347 224T399 128Q399 62 350 25T205 -13Q174 -13 127 -3T50 28L74 88Q102 74 136 64T206 54Q260 54 290
71T320 123Q320 154 287 177T205 217Q148 236 98 269T47 360Q47 425 95 461T227 498Q258 498 304 487T378 455L354 397Z" />
<glyph unicode="t" glyph-name="t" horiz-adv-x="325" d="M298 2Q287 -3 267 -9T224 -15Q162 -15 125 21T87 126V417H18L17 477H87V600L167 623V477H255L281 417H167V137Q167 100 183 77T236 53Q247 53 260 56T280 63L298 2Z" />
<glyph unicode="u" glyph-name="u" horiz-adv-x="542" d="M392 53Q360 24 318 5T237 -14Q152 -14 113 34T73 157V485H152V166Q152 117 176 85T249 53Q277 53 315 69T385 114V485H464V0H415L392 53Z" />
<glyph unicode="v" glyph-name="v" horiz-adv-x="477" d="M202 0L17 473L97 485L242 107L381 485H460L280 0H202Z" />
<glyph unicode="w" glyph-name="w" horiz-adv-x="753" d="M501 0L375 369L258 0H180L17 473L97 485L220 113L337 485H417L540 113L657 485H737L579 0H501Z" />
<glyph unicode="x" glyph-name="x" horiz-adv-x="497" d="M14 0L197 245L29 473L111 485L252 291L397 485H483L297 231L469 0H382L242 185L103 0H14Z" />
<glyph unicode="y" glyph-name="y" horiz-adv-x="477" d="M175 -79L204 3L17 473L95 485L242 110L381 485H460L312 88L246 -100Q230 -146 189 -177T96 -220L72 -163Q108 -147 135 -130T175 -79Z" />
<glyph unicode="z" glyph-name="z" horiz-adv-x="466" d="M427 442L139 62H415L425 0H46L35 40L319 421H78L60 485H423L427 442Z" />
<glyph unicode="{" glyph-name="braceleft" horiz-adv-x="276" d="M168 555Q168 530 186 487T205 416Q205 374 192 349T148 310Q176 296 190 268T205 201Q205 173 187 130T168 62Q168 45 184 31T231 16H256Q257 3 259 -12T263 -42H236Q166 -42 133 -13T100 69Q100
99 118 140T136 210Q136 242 114 262T67 282H31V333H67Q92 333 112 355T132 412Q132 445 117 485T102 556Q102 605 136 632T236 659H263Q261 644 259 629T256 600H231Q197 600 183 585T168 555Z" />
<glyph unicode="|" glyph-name="bar" horiz-adv-x="270" d="M175 705V-6L96 0V711L175 705Z" />
<glyph unicode="}" glyph-name="braceright" horiz-adv-x="276" d="M107 64Q107 91 89 131T70 201Q70 242 83 267T128 306Q100 321 85 349T70 416Q70 441 88 483T107 553Q107 569 92 584T44 600H20Q18 614 17 629T13 659H39Q108 659 142 630T176 548Q176 518 158
478T139 406Q139 376 160 355T208 334H244V284H208Q182 284 162 264T142 208Q142 177 157 138T173 65Q173 14 139 -14T39 -42H13Q15 -27 16 -12T20 16H44Q75 16 91 31T107 64Z" />
<glyph unicode="~" glyph-name="asciitilde" horiz-adv-x="383" d="M364 304Q364 242 334 218T262 193Q222 193 185 214T122 236Q106 236 95 228T81 196H18V203Q18 260 49 283T120 306Q165 306 197 284T257 262Q272 262 285 270T300 304H364Z" />
<glyph unicode="&#xa0;" glyph-name="uni00A0" horiz-adv-x="236" />
<glyph unicode="&#xa1;" glyph-name="exclamdown" horiz-adv-x="229" d="M114 592Q92 592 76 608T59 647Q59 669 75 685T114 702Q136 702 152 686T168 647Q168 625 152 609T114 592ZM69 0L85 505Q100 498 114 492T143 478L159 0H69Z" />
<glyph unicode="&#xa2;" glyph-name="cent" horiz-adv-x="469" d="M312 606V494Q340 490 372 480T426 454L402 397Q374 410 349 420T275 431Q201 431 166 378T130 245Q130 163 163 109T271 54Q320 54 345 64T398 88L422 30Q401 15 371 5T312 -9V-112L245 -107V-11Q149
-3 99 68T49 244Q50 347 100 416T245 495V606H312Z" />
<glyph unicode="&#xa3;" glyph-name="sterling" horiz-adv-x="456" d="M205 530V379H337Q343 365 350 350T364 320H205V218Q205 167 200 128T174 62H429Q432 46 434 31T439 0H62Q61 16 60 31T58 62H62Q96 63 110 86T125 146V320H53Q52 334 52 349T52 379H125V509Q125
588 157 636T261 684Q282 684 303 678T335 666L317 603Q310 607 297 610T273 614Q236 614 221 591T205 530Z" />
<glyph unicode="&#xa4;" glyph-name="currency" horiz-adv-x="671" d="M489 42Q458 16 417 2T330 -13Q285 -12 247 2T179 41L74 -66L28 -11L130 93Q111 124 100 162T89 244Q89 285 100 322T132 388L28 494L74 549L181 442Q213 467 253 482T339 498Q384 498 422
483T492 443L596 549L642 494L540 390Q561 360 572 322T583 240Q582 198 571 162T540 94L642 -11L596 -66L489 42ZM503 240Q502 319 458 373T339 427Q267 426 219 375T169 245Q170 165 214 112T331 58Q403 58 452 109T503 240Z" />
<glyph unicode="&#xa5;" glyph-name="yen" horiz-adv-x="561" d="M238 0V75H66L58 135H239V248H66L58 310H218Q166 399 112 488T6 667Q26 671 46 673T88 680L278 351L472 680H556L338 310H491L500 248H319V135H491L500 75H318V0H238Z" />
<glyph unicode="&#xa6;" glyph-name="brokenbar" horiz-adv-x="270" d="M175 705V406L96 412V711L175 705ZM175 288V-6L96 0V293L175 288Z" />
<glyph unicode="&#xa7;" glyph-name="section" horiz-adv-x="598" d="M424 184Q446 198 457 218T469 263Q469 343 357 381T170 482Q149 469 138 449T127 404Q127 323 237 285T424 184ZM80 -10Q107 -23 152 -37T247 -52Q326 -52 368 -21T410 59Q410 166 230 207T50
401Q50 444 70 479T126 537Q118 553 114 571T109 610Q109 682 168 731T328 780Q377 780 422 768T499 739L473 677Q445 690 412 701T328 713Q263 713 225 686T186 611Q186 499 366 457T546 267Q546 223 526 188T469 128Q478 112 483 95T488 57Q488 -18 425 -68T248
-119Q205 -119 143 -104T61 -71Q65 -56 70 -41T80 -10Z" />
<glyph unicode="&#xa8;" glyph-name="dieresis" horiz-adv-x="295" d="M65 711Q85 711 99 697T113 663Q113 642 99 628T65 614Q45 614 31 628T16 663Q16 682 30 696T65 711ZM230 711Q251 711 264 697T278 663Q278 642 265 628T230 614Q210 614 196 628T181 663Q181
682 195 696T230 711Z" />
<glyph unicode="&#xa9;" glyph-name="copyright" horiz-adv-x="849" d="M791 336Q791 185 692 79T424 -27Q255 -27 156 79T57 336Q57 488 156 594T424 700Q593 700 692 594T791 336ZM122 337Q122 206 203 118T424 29Q564 29 645 117T727 337Q727 468 646 556T424
645Q284 645 203 557T122 337ZM441 506Q370 506 336 459T301 342Q301 261 333 216T438 171Q485 171 509 181T562 204L585 148Q556 126 513 116T438 105Q331 105 276 171T221 341Q221 442 279 507T442 573Q472 573 516 563T589 531L565 473Q538 486 514 496T441
506Z" />
<glyph unicode="&#xaa;" glyph-name="ordfeminine" horiz-adv-x="343" d="M102 466Q102 448 115 434T153 420Q178 420 199 434T236 467V513H168Q140 513 121 501T102 466ZM57 673Q76 686 109 694T163 702Q226 702 264 666T302 580V371H258L244 405Q229 390 205
377T152 363Q100 363 68 391T36 464Q36 510 71 536T157 563H235Q235 590 221 616T164 642Q133 642 112 635T72 621L57 673Z" />
<glyph unicode="&#xab;" glyph-name="guillemotleft" horiz-adv-x="363" d="M184 267L330 406L351 354L245 245Q271 217 297 190T351 136L330 83L184 222V267ZM28 222V267Q65 301 101 336T173 406Q178 393 183 380T195 354Q169 326 142 299T89 245Q115 217 142
190T195 136L173 83Q137 117 101 152T28 222Z" />
<glyph unicode="&#xac;" glyph-name="logicalnot" horiz-adv-x="511" d="M490 356V112L419 117V343H24L16 406H482L490 356Z" />
<glyph unicode="&#xad;" glyph-name="softhyphen" horiz-adv-x="131" />
<glyph unicode="&#xae;" glyph-name="registered" horiz-adv-x="740" d="M693 487Q693 353 606 261T370 168Q221 168 134 260T46 487Q46 621 133 714T370 808Q519 808 606 715T693 487ZM106 488Q106 374 176 298T370 221Q492 222 562 298T633 488Q633 604 563
679T370 755Q246 755 176 680T106 488ZM346 631H313V506H343Q382 506 411 517T440 568Q440 612 414 621T346 631ZM532 304H463Q442 342 421 381T380 459Q373 459 366 459T351 458H313V304H252V680H363Q422 680 461 655T501 570Q501 532 483 508T437 472Q460 430
484 388T532 304Z" />
<glyph unicode="&#xaf;" glyph-name="overscore" horiz-adv-x="277" d="M16 696H262V633H16V696Z" />
<glyph unicode="&#xb0;" glyph-name="degree" horiz-adv-x="246" d="M123 707Q168 707 200 677T233 602Q233 556 201 527T123 498Q78 498 46 527T13 602Q13 646 45 676T123 707ZM179 601Q179 624 163 640T123 656Q99 656 84 640T68 602Q68 579 83 562T123 545Q146
545 162 561T179 601Z" />
<glyph unicode="&#xb1;" glyph-name="plusminus" horiz-adv-x="469" d="M447 301H269V116L199 121V301H29L21 359H199V534L269 531V359H439L447 301ZM447 1H29L22 58H440L447 1Z" />
<glyph unicode="&#xb2;" glyph-name="twosuperior" horiz-adv-x="393" d="M179 771Q261 771 295 729T329 644Q329 601 303 563T221 478L118 391H335L343 336H31V389L182 519Q226 559 242 588T258 644Q258 669 239 691T175 713Q140 713 110 695T78 675L51 729Q57
733 92 752T179 771Z" />
<glyph unicode="&#xb3;" glyph-name="threesuperior" horiz-adv-x="412" d="M188 771Q265 771 302 734T340 648Q340 608 316 579T261 538Q298 530 323 498T349 419Q349 359 303 319T177 278Q135 278 96 291T28 320L59 369Q86 353 111 345T176 336Q218 336 248
357T278 418Q278 462 249 486T151 510H132L124 566H156Q213 566 241 588T269 647Q269 675 248 694T183 714Q143 714 115 702T67 676L39 724Q70 744 106 757T188 771Z" />
<glyph unicode="&#xb4;" glyph-name="acute" horiz-adv-x="178" d="M76 745H163L75 589H16L76 745Z" />
<glyph unicode="&#xb5;" glyph-name="mu" horiz-adv-x="548" d="M399 53Q368 24 325 5T243 -14Q218 -14 197 -9T159 6V-208L80 -219V485H159V166Q159 117 183 85T256 53Q284 53 321 69T390 114V485H470V0H422L399 53Z" />
<glyph unicode="&#xb6;" glyph-name="paragraph" horiz-adv-x="854" d="M345 0V257H311Q204 257 127 308T49 471Q49 584 121 632T300 680H821V617H724V0H644V617H424V0H345Z" />
<glyph unicode="&#xb7;" glyph-name="middot" horiz-adv-x="137" d="M69 315Q91 315 106 300T122 262Q122 240 107 224T69 208Q46 208 30 224T14 262Q14 285 30 300T69 315Z" />
<glyph unicode="&#xb8;" glyph-name="cedilla" horiz-adv-x="227" d="M94 13H157L133 -48Q166 -54 188 -78T211 -129Q211 -176 176 -198T95 -221Q77 -221 54 -215T16 -200L35 -149Q45 -154 62 -159T95 -165Q114 -165 130 -157T147 -131Q147 -112 121 -98T58 -80L94 13Z" />
<glyph unicode="&#xb9;" glyph-name="onesuperior" horiz-adv-x="338" d="M286 336H70L62 390H142V683Q130 675 118 666T92 650L63 698L167 764H213V390H278Q279 377 281 363T286 336Z" />
<glyph unicode="&#xba;" glyph-name="ordmasculine" horiz-adv-x="391" d="M193 363Q122 363 80 407T37 532Q37 610 81 656T195 702Q267 702 310 657T354 532Q354 454 308 409T193 363ZM280 531Q280 588 256 615T195 642Q164 642 137 617T109 532Q109 476 134
449T194 422Q226 422 253 447T280 531Z" />
<glyph unicode="&#xbb;" glyph-name="guillemotright" horiz-adv-x="363" d="M33 406L178 267V222L33 84L10 136L116 245L10 354L33 406ZM189 406L334 267V222L189 84L166 136L273 245L166 354L189 406Z" />
<glyph unicode="&#xbc;" glyph-name="onequarter" horiz-adv-x="784" d="M286 336H70L62 390H142V683Q130 675 118 666T92 650L63 698L167 764H213V390H278Q279 377 281 363T286 336ZM255 -4L178 0Q250 125 322 250T467 501L544 498Q472 373 400 247T255 -4ZM746
-76H671V-163H603V-76H378L374 -37Q373 -33 373 -28T372 -19L379 -11Q439 71 501 154T624 321H671V-19H752L746 -76ZM445 -19H603V195L445 -19Z" />
<glyph unicode="&#xbd;" glyph-name="onehalf" horiz-adv-x="822" d="M286 336H70L62 390H142V683Q130 675 118 666T92 650L63 698L167 764H213V390H278Q279 377 281 363T286 336ZM536 498L246 -4L171 0Q243 125 315 250T460 501L536 498ZM608 325Q689 325 723
283T758 198Q758 138 702 82T548 -55H764L772 -110H461V-57L611 74Q654 112 670 142T687 198Q687 220 669 244T605 268Q570 268 540 250T508 230L481 284Q487 288 522 306T608 325Z" />
<glyph unicode="&#xbe;" glyph-name="threequarters" horiz-adv-x="834" d="M304 -4L228 0Q300 125 372 250T517 501L594 498L304 -4ZM188 771Q264 771 302 734T340 648Q340 608 316 578T261 538Q298 530 323 498T349 418Q349 359 303 319T176 278Q134 278 95
291T28 320L59 369Q86 353 111 344T176 335Q218 335 248 356T278 417Q278 462 249 486T150 510H132Q131 524 128 538T124 565H155Q215 565 242 589T269 647Q269 672 248 692T183 713Q143 713 115 701T67 675Q60 688 53 700T39 724Q70 744 106 757T188 771ZM797
-76H722V-163H653V-76H429Q426 -63 424 -48T421 -19Q423 -17 425 -15T429 -11Q490 71 552 154T674 321H722V-19H803L797 -76ZM496 -19H653V195L496 -19Z" />
<glyph unicode="&#xbf;" glyph-name="questiondown" horiz-adv-x="423" d="M252 523Q230 523 214 539T198 578Q198 600 214 616T252 632Q275 632 290 616T306 578Q306 556 291 540T252 523ZM224 -69Q125 -69 80 -23T34 97Q34 154 82 211T211 305L221 483L278 460L286
264Q210 239 162 196T113 99Q113 46 142 22T227 -2Q276 -2 314 14T395 60L405 -11Q365 -37 324 -53T224 -69Z" />
<glyph unicode="&#xc0;" glyph-name="Agrave" horiz-adv-x="601" d="M204 895H291L352 739H292L204 895ZM295 575L176 257H418L295 575ZM334 680L595 12L516 0L441 193H154L83 0H6L257 680H334Z" />
<glyph unicode="&#xc1;" glyph-name="Aacute" horiz-adv-x="601" d="M298 895H385L297 739H238L298 895ZM295 575L176 257H418L295 575ZM334 680L595 12L516 0L441 193H154L83 0H6L257 680H334Z" />
<glyph unicode="&#xc2;" glyph-name="Acircumflex" horiz-adv-x="601" d="M222 739H146L263 895H326L443 739H367L295 837L222 739ZM295 575L176 257H418L295 575ZM334 680L595 12L516 0L441 193H154L83 0H6L257 680H334Z" />
<glyph unicode="&#xc3;" glyph-name="Atilde" horiz-adv-x="601" d="M384 853H439Q439 797 413 776T349 754Q314 754 289 776T238 799Q225 799 215 789T202 759H147Q147 815 173 836T236 857Q276 857 299 835T349 813Q362 813 372 823T384 853ZM295 575L176 256H417Q387
335 356 415T295 575ZM257 680H333Q399 514 464 346T594 12Q575 9 555 6T516 0L441 193H154L82 0H6Q68 169 131 340T257 680Z" />
<glyph unicode="&#xc4;" glyph-name="Adieresis" horiz-adv-x="601" d="M213 861Q233 861 247 847T261 813Q261 792 247 778T213 764Q193 764 179 778T164 813Q164 832 178 846T213 861ZM378 861Q399 861 412 847T426 813Q426 792 413 778T378 764Q358 764 344
778T329 813Q329 832 343 846T378 861ZM295 575L176 257H418L295 575ZM334 680L595 12L516 0L441 193H154L83 0H6L257 680H334Z" />
<glyph unicode="&#xc5;" glyph-name="Aring" horiz-adv-x="601" d="M295 917Q332 917 360 892T388 829Q388 792 360 768T295 744Q257 744 229 768T201 829Q201 866 229 891T295 917ZM295 788Q312 788 325 800T338 829Q338 847 325 859T295 872Q277 872 265 860T252
829Q252 812 264 800T295 788ZM295 575L176 257H418L295 575ZM334 680L595 12L516 0L441 193H154L83 0H6L257 680H334Z" />
<glyph unicode="&#xc6;" glyph-name="AE" horiz-adv-x="878" d="M439 0V193H200L78 0Q59 2 41 5T4 12Q110 178 216 346T429 680H812L821 620H519V377H714Q716 362 718 347T724 317H519V62H841Q842 46 844 31T849 0H439ZM241 256H439V571Q390 493 340 414T241 256Z" />
<glyph unicode="&#xc7;" glyph-name="Ccedilla" horiz-adv-x="598" d="M514 597Q480 610 450 618T369 626Q269 625 211 545T152 337Q152 221 201 138T360 54Q411 54 446 63T510 85L540 25Q514 11 473 1T392 -13L378 -48Q411 -54 433 -78T455 -129Q455 -176 420
-198T340 -221Q321 -221 298 -215T261 -200L279 -149Q289 -154 307 -159T340 -165Q359 -165 375 -157T392 -131Q392 -112 366 -98T302 -80L328 -12Q191 0 130 101T69 336Q69 487 145 590T369 694Q400 694 453 685T539 655L514 597Z" />
<glyph unicode="&#xc8;" glyph-name="Egrave" horiz-adv-x="538" d="M194 894H281L341 739H281L194 894ZM99 0V680H471Q473 665 475 650T480 620H178V377H374Q376 362 378 347T383 317H178V62H500L509 0H99Z" />
<glyph unicode="&#xc9;" glyph-name="Eacute" horiz-adv-x="538" d="M287 894H375L287 739H227L287 894ZM99 0V680H471Q473 665 475 650T480 620H178V377H374Q376 362 378 347T383 317H178V62H500L509 0H99Z" />
<glyph unicode="&#xca;" glyph-name="Ecircumflex" horiz-adv-x="538" d="M211 739H136L252 894H315L433 739H356Q338 763 321 787T284 837Q266 812 248 788T211 739ZM99 0V680H471Q473 665 475 650T480 620H178V377H374Q376 362 378 347T383 317H178V62H500L509 0H99Z" />
<glyph unicode="&#xcb;" glyph-name="Edieresis" horiz-adv-x="538" d="M367 861Q388 861 402 847T416 813Q416 792 402 778T367 764Q348 764 334 778T319 813Q319 832 333 846T367 861ZM202 861Q223 861 237 847T251 813Q251 792 237 778T202 764Q183 764 168
778T153 813Q153 832 168 846T202 861ZM99 0V680H471Q473 665 475 650T480 620H178V377H374Q376 362 378 347T383 317H178V62H500L509 0H99Z" />
<glyph unicode="&#xcc;" glyph-name="Igrave" horiz-adv-x="278" d="M48 894H135L196 739H136L48 894ZM99 0V680H178V0H99Z" />
<glyph unicode="&#xcd;" glyph-name="Iacute" horiz-adv-x="278" d="M142 894H229L141 739H82L142 894ZM99 0V680H178V0H99Z" />
<glyph unicode="&#xce;" glyph-name="Icircumflex" horiz-adv-x="278" d="M66 739H-9Q19 778 48 816T107 894H169L287 739H211Q192 763 175 787T139 837L66 739ZM99 0V680H178V0H99Z" />
<glyph unicode="&#xcf;" glyph-name="Idieresis" horiz-adv-x="278" d="M222 861Q243 861 256 847T270 813Q270 792 257 778T222 764Q202 764 188 778T173 813Q173 832 187 846T222 861ZM56 861Q77 861 91 847T105 813Q105 792 91 778T56 764Q37 764 23 778T8
813Q8 832 22 846T56 861ZM99 0V680H178V0H99Z" />
<glyph unicode="&#xd0;" glyph-name="Eth" horiz-adv-x="702" d="M105 0V304H29Q26 320 24 335T20 367H105V680H335Q492 680 562 582T632 344Q632 198 554 99T327 0H105ZM281 304H185V66H328Q429 66 491 139T553 343Q553 460 501 536T338 612H185V367H273L281 304Z" />
<glyph unicode="&#xd1;" glyph-name="Ntilde" horiz-adv-x="713" d="M457 853H512Q512 797 486 776T422 754Q388 754 363 776T312 799Q299 799 288 789T276 759H220Q220 815 246 836T309 857Q350 857 373 835T422 813Q435 813 445 823T457 853ZM99 0V680H162L493
220L534 153V680H614V0H551L204 489L178 533V0H99Z" />
<glyph unicode="&#xd2;" glyph-name="Ograve" horiz-adv-x="737" d="M280 895H367L428 739H368L280 895ZM69 337Q69 488 146 590T371 696Q528 696 598 591T669 345Q669 199 592 94T366 -14Q209 -14 139 91T69 337ZM152 338Q152 220 203 137T364 54Q465 54 524
133T584 344Q584 462 533 544T372 626Q272 626 212 546T152 338Z" />
<glyph unicode="&#xd3;" glyph-name="Oacute" horiz-adv-x="737" d="M374 895H461L373 739H314L374 895ZM69 337Q69 488 146 590T371 696Q528 696 598 591T669 345Q669 199 592 94T366 -14Q209 -14 139 91T69 337ZM152 338Q152 220 203 137T364 54Q465 54 524
133T584 344Q584 462 533 544T372 626Q272 626 212 546T152 338Z" />
<glyph unicode="&#xd4;" glyph-name="Ocircumflex" horiz-adv-x="737" d="M298 739H222L339 895H401L519 739H443L371 837L298 739ZM69 337Q69 488 146 590T371 696Q528 696 598 591T669 345Q669 199 592 94T366 -14Q209 -14 139 91T69 337ZM152 338Q152 220 203
137T364 54Q465 54 524 133T584 344Q584 462 533 544T372 626Q272 626 212 546T152 338Z" />
<glyph unicode="&#xd5;" glyph-name="Otilde" horiz-adv-x="737" d="M460 853H514Q514 797 488 776T425 754Q390 754 365 776T314 799Q301 799 290 789T278 759H223V766Q223 817 250 837T312 857Q352 857 375 835T424 813Q437 813 447 823T460 853ZM370 696Q527
696 598 591T669 344Q669 199 592 94T366 -14Q209 -14 139 91T69 337Q69 488 146 590T370 696ZM152 338Q152 220 203 137T364 54Q465 54 524 133T584 344Q584 461 533 543T372 626Q272 626 212 546T152 338Z" />
<glyph unicode="&#xd6;" glyph-name="Odieresis" horiz-adv-x="737" d="M288 861Q309 861 323 847T337 813Q337 792 323 778T288 764Q269 764 255 778T240 813Q240 832 254 846T288 861ZM454 861Q475 861 488 847T502 813Q502 792 489 778T454 764Q434 764 420
778T405 813Q405 832 419 846T454 861ZM69 337Q69 488 146 590T371 696Q528 696 598 591T669 345Q669 199 592 94T366 -14Q209 -14 139 91T69 337ZM152 338Q152 220 203 137T364 54Q465 54 524 133T584 344Q584 462 533 544T372 626Q272 626 212 546T152 338Z"
/>
<glyph unicode="&#xd7;" glyph-name="multiply" horiz-adv-x="489" d="M21 42L193 252L28 457L102 469L242 295Q278 338 315 381T388 469H469Q423 413 376 356T283 243L453 30H372L234 200Q215 178 198 157T163 114L93 29L21 42Z" />
<glyph unicode="&#xd8;" glyph-name="Oslash" horiz-adv-x="737" d="M69 337Q69 488 146 590T371 696Q528 696 598 591T669 345Q669 199 592 94T366 -14Q209 -14 139 91T69 337ZM372 626Q272 626 212 546T152 338Q152 268 170 208T226 110L444 614Q428 620 410
623T372 626ZM288 70Q304 63 323 59T364 54Q465 54 524 133T584 344Q584 416 565 476T506 574L288 70Z" />
<glyph unicode="&#xd9;" glyph-name="Ugrave" horiz-adv-x="692" d="M257 894H344L405 739H345L257 894ZM169 250Q169 163 216 109T345 54Q429 54 475 109T521 250V680H601V241Q601 131 533 60T345 -11Q227 -11 159 60T90 241V680H169V250Z" />
<glyph unicode="&#xda;" glyph-name="Uacute" horiz-adv-x="692" d="M343 894H431L343 739H283L343 894ZM169 250Q169 163 216 109T345 54Q429 54 475 109T521 250V680H601V241Q601 131 533 60T345 -11Q227 -11 159 60T90 241V680H169V250Z" />
<glyph unicode="&#xdb;" glyph-name="Ucircumflex" horiz-adv-x="692" d="M273 739H197L314 894H377L494 739H418L346 837L273 739ZM169 250Q169 163 216 109T345 54Q429 54 475 109T521 250V680H601V241Q601 131 533 60T345 -11Q227 -11 159 60T90 241V680H169V250Z" />
<glyph unicode="&#xdc;" glyph-name="Udieresis" horiz-adv-x="692" d="M428 861Q449 861 463 847T477 813Q477 792 463 778T428 764Q409 764 395 778T380 813Q380 832 394 846T428 861ZM263 861Q284 861 298 847T312 813Q312 792 298 778T263 764Q244 764 229
778T214 813Q214 832 229 846T263 861ZM169 250Q169 163 216 109T345 54Q429 54 475 109T521 250V680H601V241Q601 131 533 60T345 -11Q227 -11 159 60T90 241V680H169V250Z" />
<glyph unicode="&#xdd;" glyph-name="Yacute" horiz-adv-x="561" d="M278 895H365L277 739H218L278 895ZM238 0L239 273L6 667L88 680L278 351L472 680H556L319 277L318 0H238Z" />
<glyph unicode="&#xde;" glyph-name="Thorn" horiz-adv-x="593" d="M99 0V680H178V566H285Q392 566 464 519T536 358Q536 246 458 195T274 143H178V0H99ZM285 500H178V209H277Q352 209 402 243T454 355Q454 437 409 468T285 500Z" />
<glyph unicode="&#xdf;" glyph-name="germandbls" horiz-adv-x="593" d="M80 473Q80 574 140 629T299 685Q383 685 444 641T506 504Q506 454 484 417T422 360Q474 341 509 298T544 190Q544 87 472 44T292 0H230V66H291Q363 66 413 93T463 189Q463 257 418 288T301
320H244V384H273Q354 384 389 414T425 501Q425 561 388 589T299 618Q231 618 195 578T159 472V0H80V473Z" />
<glyph unicode="&#xe0;" glyph-name="agrave" horiz-adv-x="504" d="M152 744H240L300 589H240L152 744ZM124 138Q124 107 145 79T215 51Q257 51 292 72T352 122V233H224Q175 233 150 205T124 138ZM82 455Q110 474 161 486T242 498Q326 498 378 453T431 334V0H383L362
49Q337 26 297 7T217 -12Q133 -12 92 30T51 138Q51 210 99 247T226 285H351Q351 345 332 387T245 429Q196 429 164 418T105 395Q100 410 94 425T82 455Z" />
<glyph unicode="&#xe1;" glyph-name="aacute" horiz-adv-x="504" d="M247 744H333L246 589H186L247 744ZM124 138Q124 107 145 79T215 51Q257 51 292 72T352 122V233H224Q175 233 150 205T124 138ZM82 455Q110 474 161 486T242 498Q326 498 378 453T431 334V0H383L362
49Q337 26 297 7T217 -12Q133 -12 92 30T51 138Q51 210 99 247T226 285H351Q351 345 332 387T245 429Q196 429 164 418T105 395Q100 410 94 425T82 455Z" />
<glyph unicode="&#xe2;" glyph-name="acircumflex" horiz-adv-x="504" d="M175 589H99L217 744H278L396 589H321L248 687L175 589ZM124 138Q124 107 145 79T215 51Q257 51 292 72T352 122V233H224Q175 233 150 205T124 138ZM82 455Q110 474 161 486T242 498Q326
498 378 453T431 334V0H383L362 49Q337 26 297 7T217 -12Q133 -12 92 30T51 138Q51 210 99 247T226 285H351Q351 345 332 387T245 429Q196 429 164 418T105 395Q100 410 94 425T82 455Z" />
<glyph unicode="&#xe3;" glyph-name="atilde" horiz-adv-x="504" d="M335 703H390Q390 647 363 626T299 604Q265 604 240 626T189 649Q176 649 166 639T154 609H97Q97 665 123 686T187 707Q228 707 250 685T299 663Q312 663 322 673T335 703ZM124 138Q124 107
145 79T215 51Q257 51 292 72T352 122V233H224Q175 233 150 205T124 138ZM82 455Q110 474 161 486T242 498Q326 498 378 453T431 334V0H383L362 49Q337 26 297 7T217 -12Q133 -12 92 30T51 138Q51 210 99 247T226 285H351Q351 345 332 387T245 429Q196 429 164
418T105 395Q100 410 94 425T82 455Z" />
<glyph unicode="&#xe4;" glyph-name="adieresis" horiz-adv-x="504" d="M330 711Q350 711 364 697T378 663Q378 642 364 628T330 614Q310 614 296 628T281 663Q281 682 295 696T330 711ZM165 711Q185 711 199 697T214 663Q214 642 200 628T165 614Q144 614 130
628T115 663Q115 682 129 696T165 711ZM124 138Q124 107 145 79T215 51Q257 51 292 72T352 122V233H224Q175 233 150 205T124 138ZM82 455Q110 474 161 486T242 498Q326 498 378 453T431 334V0H383L362 49Q337 26 297 7T217 -12Q133 -12 92 30T51 138Q51 210 99
247T226 285H351Q351 345 332 387T245 429Q196 429 164 418T105 395Q100 410 94 425T82 455Z" />
<glyph unicode="&#xe5;" glyph-name="aring" horiz-adv-x="504" d="M247 767Q284 767 312 742T340 679Q340 642 312 618T247 594Q209 594 181 618T153 679Q153 716 181 741T247 767ZM247 637Q264 637 277 649T290 679Q290 697 277 709T247 722Q229 722 217 710T204
679Q204 662 216 650T247 637ZM124 138Q124 107 145 79T215 51Q257 51 292 72T352 122V233H224Q175 233 150 205T124 138ZM82 455Q110 474 161 486T242 498Q326 498 378 453T431 334V0H383L362 49Q337 26 297 7T217 -12Q133 -12 92 30T51 138Q51 210 99 247T226
285H351Q351 345 332 387T245 429Q196 429 164 418T105 395Q100 410 94 425T82 455Z" />
<glyph unicode="&#xe6;" glyph-name="ae" horiz-adv-x="829" d="M784 230H432Q435 153 473 103T594 52Q643 52 673 62T732 86Q737 72 743 57T756 28Q726 7 676 -2T594 -12Q526 -12 476 12T397 80Q373 44 325 16T220 -12Q133 -12 92 30T51 137Q51 209 99 246T226
283H352V320Q352 368 326 398T245 429Q196 429 164 418T105 395Q100 410 94 425T82 455Q110 474 161 486T242 498Q298 498 340 476T404 416Q432 454 475 476T576 498Q689 498 736 420T784 230ZM705 284Q698 349 668 390T574 431Q511 431 477 390T433 284H705ZM124
137Q124 106 145 79T215 51Q262 51 302 75T367 138Q360 159 356 182T351 230H224Q175 230 150 203T124 137Z" />
<glyph unicode="&#xe7;" glyph-name="ccedilla" horiz-adv-x="469" d="M275 431Q201 431 166 378T130 245Q130 163 163 109T271 54Q320 54 345 64T398 88L422 30Q398 14 365 4T302 -10L288 -48Q321 -54 343 -78T366 -129Q366 -176 331 -198T251 -221Q232 -221
208 -215T170 -200L190 -149Q200 -154 218 -159T251 -165Q268 -165 284 -157T301 -131Q301 -112 276 -98T213 -80L239 -10Q145 0 97 69T49 244Q50 355 108 426T277 498Q306 498 350 487T426 454L402 397Q374 410 349 420T275 431Z" />
<glyph unicode="&#xe8;" glyph-name="egrave" horiz-adv-x="528" d="M183 744H270L331 589H271L183 744ZM483 230H131Q134 153 172 103T292 52Q341 52 371 62T430 86L455 28Q424 7 374 -2T294 -12Q173 -12 111 59T49 244Q50 354 108 426T275 498Q388 498 435 419T483
230ZM405 284Q397 349 366 390T272 431Q209 431 175 390T133 284H405Z" />
<glyph unicode="&#xe9;" glyph-name="eacute" horiz-adv-x="528" d="M277 744H364L276 589H216L277 744ZM483 230H131Q134 153 172 103T292 52Q341 52 371 62T430 86L455 28Q424 7 374 -2T294 -12Q173 -12 111 59T49 244Q50 354 108 426T275 498Q388 498 435 419T483
230ZM405 284Q397 349 366 390T272 431Q209 431 175 390T133 284H405Z" />
<glyph unicode="&#xea;" glyph-name="ecircumflex" horiz-adv-x="528" d="M203 589H126L244 744H306L423 589H347Q330 613 312 637T276 687L203 589ZM483 230H131Q134 153 172 103T292 52Q341 52 371 62T430 86L455 28Q424 7 374 -2T294 -12Q173 -12 111 59T49
244Q50 354 108 426T275 498Q388 498 435 419T483 230ZM405 284Q397 349 366 390T272 431Q209 431 175 390T133 284H405Z" />
<glyph unicode="&#xeb;" glyph-name="edieresis" horiz-adv-x="528" d="M357 711Q377 711 391 697T405 663Q405 642 391 628T357 614Q336 614 322 628T307 663Q307 682 321 696T357 711ZM191 711Q212 711 226 697T241 663Q241 642 227 628T191 614Q171 614 157
628T143 663Q143 682 157 696T191 711ZM483 230H131Q134 153 172 103T292 52Q341 52 371 62T430 86L455 28Q424 7 374 -2T294 -12Q173 -12 111 59T49 244Q50 354 108 426T275 498Q388 498 435 419T483 230ZM405 284Q397 349 366 390T272 431Q209 431 175 390T133
284H405Z" />
<glyph unicode="&#xec;" glyph-name="igrave" horiz-adv-x="238" d="M11 744H98L158 589H98L11 744ZM79 0V485H159V0H79Z" />
<glyph unicode="&#xed;" glyph-name="iacute" horiz-adv-x="238" d="M140 744H227L139 589H79L140 744ZM79 0V485H159V0H79Z" />
<glyph unicode="&#xee;" glyph-name="icircumflex" horiz-adv-x="238" d="M46 589H-29Q0 628 29 666T88 744H150L268 589H191L120 687Q102 662 84 638T46 589ZM79 0V485H159V0H79Z" />
<glyph unicode="&#xef;" glyph-name="idieresis" horiz-adv-x="238" d="M202 711Q222 711 236 697T251 663Q251 642 237 628T202 614Q182 614 167 628T152 663Q152 682 167 696T202 711ZM36 711Q56 711 71 697T86 663Q86 642 71 628T36 614Q16 614 2 628T-12 663Q-12
682 2 696T36 711ZM79 0V485H159V0H79Z" />
<glyph unicode="&#xf0;" glyph-name="eth" horiz-adv-x="545" d="M397 651L332 595Q397 534 440 448T484 262Q484 128 419 58T250 -13Q160 -13 104 50T47 193Q47 271 102 331T252 392Q294 392 333 374T399 331Q387 395 355 451T278 549L178 464L143 516L229 589Q199
611 168 626T105 647L139 698Q176 691 212 675T283 633L362 702L397 651ZM123 188Q123 136 158 95T253 53Q328 53 365 105T406 242Q387 276 347 303T252 331Q192 331 158 288T123 188Z" />
<glyph unicode="&#xf1;" glyph-name="ntilde" horiz-adv-x="559" d="M402 703H457Q457 647 431 626T367 604Q332 604 307 626T256 649Q243 649 233 639T221 609H164Q164 665 190 686T254 707Q295 707 318 685T366 663Q378 663 389 672T402 703ZM78 0V485H126Q132
468 138 450T151 415Q182 450 230 474T322 499Q406 499 446 451T486 328V0H407V318Q407 367 383 399T309 432Q278 432 234 411T157 353V0H78Z" />
<glyph unicode="&#xf2;" glyph-name="ograve" horiz-adv-x="543" d="M183 745H270L330 589H270L183 745ZM264 -13Q157 -12 103 60T49 245Q50 355 108 426T274 498Q384 498 438 425T493 239Q492 128 432 58T264 -13ZM414 239Q414 322 383 376T276 430Q202 430 167
379T130 246Q130 161 160 108T265 55Q340 55 376 105T414 239Z" />
<glyph unicode="&#xf3;" glyph-name="oacute" horiz-adv-x="543" d="M276 745H363L275 589H216L276 745ZM264 -13Q157 -12 103 60T49 245Q50 355 108 426T274 498Q384 498 438 425T493 239Q492 128 432 58T264 -13ZM414 239Q414 322 383 376T276 430Q202 430 167
379T130 246Q130 161 160 108T265 55Q340 55 376 105T414 239Z" />
<glyph unicode="&#xf4;" glyph-name="ocircumflex" horiz-adv-x="543" d="M200 589H124L242 745H303L421 589H345L273 687L200 589ZM264 -13Q157 -12 103 60T49 245Q50 355 108 426T274 498Q384 498 438 425T493 239Q492 128 432 58T264 -13ZM414 239Q414 322
383 376T276 430Q202 430 167 379T130 246Q130 161 160 108T265 55Q340 55 376 105T414 239Z" />
<glyph unicode="&#xf5;" glyph-name="otilde" horiz-adv-x="543" d="M361 703H417Q417 647 391 626T327 604Q293 604 268 626T216 649Q203 649 193 639T181 609H123Q123 665 149 686T213 707Q254 707 277 685T326 663Q338 663 349 673T361 703ZM264 -12Q157 -12
103 60T49 244Q50 354 108 425T273 498Q383 498 438 425T493 239Q493 128 432 58T264 -12ZM414 239Q414 321 383 375T276 430Q202 430 166 379T130 245Q130 161 160 108T265 54Q338 54 376 104T414 239Z" />
<glyph unicode="&#xf6;" glyph-name="odieresis" horiz-adv-x="543" d="M191 711Q211 711 225 697T239 663Q239 642 225 628T191 614Q170 614 156 628T142 663Q142 682 156 696T191 711ZM356 711Q377 711 391 697T405 663Q405 642 391 628T356 614Q336 614 322
628T307 663Q307 682 321 696T356 711ZM264 -13Q157 -12 103 60T49 245Q50 355 108 426T274 498Q384 498 438 425T493 239Q492 128 432 58T264 -13ZM414 239Q414 322 383 376T276 430Q202 430 167 379T130 246Q130 161 160 108T265 55Q340 55 376 105T414 239Z"
/>
<glyph unicode="&#xf7;" glyph-name="divide" horiz-adv-x="480" d="M239 360Q212 360 195 378T177 421Q177 447 194 464T239 482Q264 482 282 465T300 421Q300 396 282 378T239 360ZM460 242H28L20 305H452L460 242ZM240 49Q215 49 197 67T179 111Q179 136 197
154T240 172Q265 172 283 154T302 111Q302 86 284 68T240 49Z" />
<glyph unicode="&#xf8;" glyph-name="oslash" horiz-adv-x="543" d="M264 -13Q157 -12 103 60T49 245Q50 355 108 426T274 498Q384 498 438 425T493 239Q492 128 432 58T264 -13ZM330 418Q320 424 306 427T276 430Q202 430 167 379T130 246Q130 201 138 165T165
103L330 418ZM265 55Q340 55 376 105T414 239Q414 278 407 312T385 370L223 61Q231 57 242 56T265 55Z" />
<glyph unicode="&#xf9;" glyph-name="ugrave" horiz-adv-x="542" d="M174 745H260L321 589H261L174 745ZM392 53Q360 24 318 5T237 -14Q152 -14 113 34T73 157V485H152V166Q152 117 176 85T249 53Q277 53 315 69T385 114V485H464V0H415L392 53Z" />
<glyph unicode="&#xfa;" glyph-name="uacute" horiz-adv-x="542" d="M272 745H360L271 589H213L272 745ZM392 53Q360 24 318 5T237 -14Q152 -14 113 34T73 157V485H152V166Q152 117 176 85T249 53Q277 53 315 69T385 114V485H464V0H415L392 53Z" />
<glyph unicode="&#xfb;" glyph-name="ucircumflex" horiz-adv-x="542" d="M197 589H120L238 745H299L417 589H342L269 687L197 589ZM392 53Q360 24 318 5T237 -14Q152 -14 113 34T73 157V485H152V166Q152 117 176 85T249 53Q277 53 315 69T385 114V485H464V0H415L392 53Z" />
<glyph unicode="&#xfc;" glyph-name="udieresis" horiz-adv-x="542" d="M188 711Q208 711 222 697T236 663Q236 642 222 628T188 614Q167 614 152 628T137 663Q137 682 152 696T188 711ZM352 711Q373 711 387 697T401 663Q401 642 387 628T352 614Q333 614 318
628T303 663Q303 682 318 696T352 711ZM392 53Q360 24 318 5T237 -14Q152 -14 113 34T73 157V485H152V166Q152 117 176 85T249 53Q277 53 315 69T385 114V485H464V0H415L392 53Z" />
<glyph unicode="&#xfd;" glyph-name="yacute" horiz-adv-x="477" d="M247 745H334L246 589H186L247 745ZM175 -79L204 3L17 473L95 485L242 110L381 485H460L312 88L246 -100Q230 -146 189 -177T96 -220L72 -163Q108 -147 135 -130T175 -79Z" />
<glyph unicode="&#xfe;" glyph-name="thorn" horiz-adv-x="552" d="M159 105Q187 80 218 67T278 54Q356 54 389 109T422 242Q422 323 390 377T278 432Q250 432 219 419T159 380V105ZM80 -219V695L159 706V450Q188 472 223 485T290 499Q397 499 449 426T501 243Q501
132 449 60T290 -12Q258 -12 223 0T159 35V-208L80 -219Z" />
<glyph unicode="&#xff;" glyph-name="ydieresis" horiz-adv-x="477" d="M328 711Q347 711 361 697T375 663Q375 642 361 628T328 614Q306 614 292 628T278 663Q278 682 292 696T328 711ZM161 711Q182 711 196 697T210 663Q210 642 196 628T161 614Q141 614 127
628T113 663Q113 682 127 696T161 711ZM175 -79L204 3L17 473L95 485L242 110L381 485H460L312 88L246 -100Q230 -146 189 -177T96 -220L72 -163Q108 -147 135 -130T175 -79Z" />
<glyph unicode="&#x2013;" glyph-name="endash" horiz-adv-x="412" d="M396 242H25L16 305H387L396 242Z" />
<glyph unicode="&#x2014;" glyph-name="emdash" horiz-adv-x="509" d="M494 242H25L16 305H485L494 242Z" />
<glyph unicode="&#x2018;" glyph-name="quoteleft" horiz-adv-x="135" d="M61 484Q37 484 22 501T7 547Q7 595 36 642T108 712L130 674Q105 657 89 639T68 592Q88 591 101 575T115 538Q115 517 100 501T61 484Z" />
<glyph unicode="&#x2019;" glyph-name="quoteright" horiz-adv-x="135" d="M74 712Q96 712 112 695T128 648Q128 601 99 554T26 484L6 521Q30 539 45 557T65 604Q46 605 33 621T19 657Q19 679 35 695T74 712Z" />
<glyph unicode="&#x201a;" glyph-name="quotesinglbase" horiz-adv-x="135" d="M74 107Q96 107 112 90T128 45Q128 -4 99 -51T26 -120L6 -82Q30 -65 45 -46T65 1Q46 2 33 18T19 54Q19 75 35 91T74 107Z" />
<glyph unicode="&#x201c;" glyph-name="quotedblleft" horiz-adv-x="291" d="M61 484Q37 484 22 501T7 547Q7 595 36 642T108 712L130 674Q105 657 89 639T68 592Q88 591 101 575T115 538Q115 517 100 501T61 484ZM217 484Q195 484 179 501T163 547Q163 595 192
642T265 712L285 674Q261 657 245 639T226 592Q245 591 258 575T272 538Q272 517 256 501T217 484Z" />
<glyph unicode="&#x201d;" glyph-name="quotedblright" horiz-adv-x="291" d="M230 712Q252 712 268 695T284 648Q284 601 255 554T183 484L162 521Q187 539 202 557T222 604Q203 605 190 621T176 657Q176 679 191 695T230 712ZM74 712Q96 712 112 695T128 648Q128
601 99 554T26 484L6 521Q30 539 45 557T65 604Q46 605 33 621T19 657Q19 679 35 695T74 712Z" />
<glyph unicode="&#x201e;" glyph-name="quotedblbase" horiz-adv-x="291" d="M74 108Q96 108 112 91T128 45Q128 -3 99 -50T26 -120L6 -82Q30 -65 45 -46T65 1Q46 2 33 18T19 54Q19 76 35 92T74 108ZM230 107Q252 107 268 90T284 45Q284 -4 255 -51T183 -120L162
-82Q187 -65 202 -46T222 1Q203 2 190 18T176 54Q176 75 191 91T230 107Z" />
<glyph unicode="&#x2022;" glyph-name="bullet" horiz-adv-x="224" d="M112 239Q75 239 49 265T23 327Q23 364 49 390T112 416Q149 416 175 390T201 327Q201 291 175 265T112 239Z" />
<glyph unicode="&#x2039;" glyph-name="guilsinglleft" horiz-adv-x="208" d="M28 221V269Q65 303 101 338T173 408Q178 394 183 380T195 351L93 245Q118 218 144 192T195 138Q189 125 184 111T173 83L28 221Z" />
<glyph unicode="&#x203a;" glyph-name="guilsinglright" horiz-adv-x="208" d="M34 408L179 269V221L34 83L11 139L115 245L11 351L34 408Z" />
</font>
</defs>
</svg>
