<?xml version="1.0" standalone="no"?>
<!DOCTYPE svg PUBLIC "-//W3C//DTD SVG 1.1//EN" "http://www.w3.org/Graphics/SVG/1.1/DTD/svg11.dtd">
<svg xmlns="http://www.w3.org/2000/svg">
<defs >
<font id="MerriweatherSans" horiz-adv-x="1161" ><font-face
    font-family="Merriweather Sans SemiBold"
    units-per-em="2000"
    panose-1="0 0 0 0 0 0 0 0 0 0"
    ascent="1968"
    descent="-546"
    alphabetic="0" />
<glyph unicode=" " horiz-adv-x="360" />
<glyph unicode="!" horiz-adv-x="670" d="M217 478L359 1736H651L423 478H217ZM245 -17Q184 -17 146 18T108 111Q110 187 164 242T298 298Q369 298 403 264T437 173Q436 90 383 37T245 -17Z" />
<glyph unicode="&quot;" horiz-adv-x="1046" d="M214 944L294 1648H568L397 944H214ZM728 944L808 1648H1082L911 944H728Z" />
<glyph unicode="#" horiz-adv-x="1372" d="M240 0L296 334H107L121 510H320L377 852H182L195 1025H401L450 1326H652L605 1025H868L920 1326H1122L1073 1025H1279L1265 852H1048L991 510H1192L1178 334H965L911 0H714L762 334H499L439 0H240ZM525 510H788L843
852H580L525 510Z" />
<glyph unicode="$" horiz-adv-x="1176" d="M355 -248L395 -14Q332 -8 271 6T163 38T97 71L181 290Q209 266 259 244T365 209T471 195Q539 195 597 214T692 275T729 379Q729 457 683 520T531 656Q395 751 321 857T246 1097Q246 1208 295 1292T430 1428T627 1499L664
1721H872L835 1504Q917 1498 979 1477T1081 1426L995 1212Q970 1238 926 1257T831 1286T733 1297Q668 1297 618 1279T538 1226T507 1135Q505 1085 533 1035T609 936T718 844Q806 780 871 718T972 585T1008 422Q1009 299 961 209T821 64T603 -10L562 -248H355Z"
/>
<glyph unicode="%" horiz-adv-x="1831" d="M426 0L1237 1494H1429L629 0H426ZM430 691Q288 691 205 781T121 1020Q121 1139 175 1242T326 1409T548 1472Q649 1472 717 1433T820 1324T855 1159Q855 1033 802 927T653 756T430 691ZM453 854Q518 854 561 900T628
1012T651 1141Q651 1219 618 1264T525 1310Q455 1310 409 1266T340 1158T317 1030Q317 950 353 902T453 854ZM1342 60Q1256 60 1186 100T1075 215T1034 389Q1034 508 1088 611T1238 777T1461 841Q1562 841 1630 802T1732 693T1767 528Q1767 402 1714 296T1565 125T1342
60ZM1366 223Q1431 223 1474 269T1541 381T1564 510Q1564 590 1531 634T1438 679Q1368 679 1322 636T1252 527T1229 399Q1229 319 1265 271T1366 223Z" />
<glyph unicode="&amp;" horiz-adv-x="1514" d="M613 -16Q443 -16 316 24T117 146T46 356Q46 449 82 522T191 655T372 763Q336 844 313 932T290 1092Q290 1217 347 1311T506 1457T736 1510Q856 1510 938 1468T1064 1358T1108 1208Q1108 1102 1059 1021T916 868T685
719Q761 593 840 491T1004 309Q1041 352 1058 404T1076 519Q1076 546 1076 570T1071 620Q1039 617 1011 611T966 594L976 772Q996 795 1036 802T1125 810H1487L1472 622H1322Q1327 571 1322 521Q1309 315 1181 185Q1233 162 1291 155T1426 150L1394 1Q1375 -5 1342
-9T1269 -15T1195 -18Q1139 -18 1072 -2T949 44Q874 14 791 -1T613 -16ZM633 168Q672 168 707 173T775 187Q708 252 659 312T565 438T468 590Q396 551 358 494T319 374Q319 299 360 254T472 189T633 168ZM595 883Q676 928 734 973T823 1068T855 1178Q855 1252 819
1293T711 1335Q661 1335 623 1305T563 1225T542 1114Q542 1058 555 1000T595 883Z" />
<glyph unicode="&apos;" horiz-adv-x="532" d="M214 944L294 1648H568L397 944H214Z" />
<glyph unicode="(" horiz-adv-x="834" d="M501 -328Q392 -243 316 -107T201 190T161 512Q161 661 188 810T269 1098T396 1358T563 1573T766 1726L897 1637Q783 1538 694 1413T544 1143T452 837T421 502Q421 392 437 286T484 83T559 -97T658 -245L501 -328Z" />
<glyph unicode=")" horiz-adv-x="832" d="M121 -331L-25 -243Q89 -142 178 -20T329 245T423 545T456 872Q456 988 439 1099T390 1310T313 1494T213 1639L370 1723Q481 1635 557 1500T671 1202T710 869Q710 696 664 516T537 171T349 -126T121 -331Z" />
<glyph unicode="*" horiz-adv-x="1278" d="M553 598L620 902L653 1040L538 950L276 767L186 952L482 1073L614 1124L493 1171L221 1294L341 1477L574 1294L672 1209L666 1345L663 1649H874L806 1345L770 1209L888 1294L1157 1479L1242 1294L945 1171L814 1122L935
1073L1206 952L1076 769L852 952L753 1040L763 902L770 597L553 598Z" />
<glyph unicode="+" horiz-adv-x="1327" d="M513 265L542 519L566 664L437 656H206L231 865H464L588 853L599 1002L627 1251H849L823 1002L797 855L900 865H1160L1134 656H875L773 664L766 519L735 265H513Z" />
<glyph unicode="," horiz-adv-x="514" d="M60 -499L-22 -392L-18 -372Q52 -335 96 -263T141 -111Q141 -47 116 3T52 66L58 118L188 274Q256 248 298 199T360 87T380 -35Q380 -141 341 -237Q301 -330 229 -399T60 -499Z" />
<glyph unicode="-" horiz-adv-x="1210" d="M209 613L237 815H1043L1016 613H209Z" />
<glyph unicode="." horiz-adv-x="514" d="M192 -25Q132 -25 95 11T57 105Q57 179 107 234T236 289Q307 289 340 254T374 160Q374 76 325 26T192 -25Z" />
<glyph unicode="/" horiz-adv-x="834" d="M-115 -354L725 1560H946L103 -354H-115Z" />
<glyph unicode="0" horiz-adv-x="1296" d="M572 -16Q458 -16 371 31T226 160T139 349T109 576Q109 772 158 940T296 1235T507 1431T773 1502Q926 1502 1029 1426T1184 1216T1236 914Q1236 728 1188 561T1052 263T842 59T572 -16ZM600 193Q689 193 754 256T863
423T927 650T948 894Q948 1030 926 1118T859 1249T745 1293Q668 1294 610 1249T511 1129T444 962T406 776T394 599Q394 475 417 384T485 243T600 193Z" />
<glyph unicode="1" horiz-adv-x="898" d="M270 0L439 1163Q381 1140 313 1123T179 1101L148 1274Q216 1290 300 1327T465 1411T604 1507H610L764 1485L549 0H270Z" />
<glyph unicode="2" horiz-adv-x="1204" d="M64 0L21 139Q127 208 237 291T448 467T629 659T756 858T803 1057Q803 1119 781 1171T710 1255T578 1287Q510 1287 456 1268T356 1218T273 1158L160 1301Q203 1352 273 1399T433 1476T626 1506Q759 1506 849 1468T995
1366T1074 1226T1098 1073Q1098 962 1052 857T927 653T753 468T557 309T368 183L1042 213V0H64Z" />
<glyph unicode="3" horiz-adv-x="1152" d="M290 -15Q226 -15 171 -11T60 -3L85 196Q130 192 175 189T255 186Q363 186 449 204T597 258T690 346T723 464Q723 513 698 558T617 632T472 664L305 619L321 822Q390 834 464 862T602 932T706 1026T746 1140Q746 1217
701 1259T558 1301Q487 1301 430 1281T329 1232T253 1177L154 1334Q201 1382 275 1421T443 1483T641 1507Q749 1507 836 1471T976 1364T1028 1191Q1028 1094 980 1013T850 871T663 773Q783 770 862 727T981 616T1020 474Q1020 362 962 272T802 117T569 19T290 -15Z"
/>
<glyph unicode="4" horiz-adv-x="1250" d="M628 0L666 299H78L19 429Q118 584 217 755T416 1112T615 1494H828L922 1424L388 580L309 485L694 502L755 913L1006 949L944 511L1180 524L1150 299H915L879 0H628Z" />
<glyph unicode="5" horiz-adv-x="1180" d="M213 -14Q189 -14 152 -11T86 2L116 190Q139 186 157 184T193 182Q284 182 381 202T561 265T695 377T746 545Q746 648 690 708T509 768Q474 768 431 761T346 743T274 716L172 822L326 1494H907L927 1510H1089L1028 1272H538L448
927Q485 940 545 949T661 958Q780 958 867 917T1003 792T1051 583Q1051 445 988 335T811 147T545 28T213 -14Z" />
<glyph unicode="6" horiz-adv-x="1250" d="M575 -16Q422 -16 321 54T168 240T117 497Q117 743 216 948T501 1299T939 1509L1000 1344Q852 1293 744 1215T568 1051T473 890Q506 916 552 936T652 968T763 980Q885 980 969 923T1097 774T1141 578Q1141 472 1107 367T1002
175T826 36T575 -16ZM595 173Q664 173 716 207T802 297T855 419T873 548Q873 630 844 680T766 755T661 779Q590 779 540 760T458 716T408 671Q393 621 387 579T380 491Q380 398 403 326T474 214T595 173Z" />
<glyph unicode="7" horiz-adv-x="1080" d="M173 0L812 1278L129 1277L158 1494H1083L1123 1440L493 0H173Z" />
<glyph unicode="8" horiz-adv-x="1246" d="M560 -18Q435 -18 329 24T158 148T94 347Q93 458 139 538T263 672T433 760Q384 804 344 857T279 972T254 1107Q254 1239 320 1328T495 1462T730 1509Q850 1509 944 1470T1092 1357T1147 1185Q1147 1079 1100 999T978
864T819 780Q887 730 950 674T1055 549T1096 395Q1096 265 1023 173T829 32T560 -18ZM590 158Q656 158 707 184T786 256T815 363Q815 424 782 475T691 573T562 673Q508 642 464 602T394 507T367 379Q367 283 431 221T590 158ZM704 868Q783 911 838 985T894 1162Q894
1251 842 1295T717 1340Q629 1340 574 1280T519 1129Q519 1051 572 990T704 868Z" />
<glyph unicode="9" horiz-adv-x="1247" d="M348 -17L286 147Q435 199 544 271T721 422T817 576Q769 540 692 519T533 498Q406 498 320 561T191 721T147 923Q147 1034 182 1136T287 1319T462 1447T709 1495Q865 1495 967 1426T1119 1240T1169 984Q1169 738 1069
536T784 191T348 -17ZM620 697Q688 697 741 715T830 758T883 801Q897 854 900 897T904 987Q904 1080 878 1153T801 1268T682 1310Q613 1310 562 1278T479 1193T431 1077T415 953Q415 822 477 760T620 697Z" />
<glyph unicode=":" horiz-adv-x="514" d="M428 -25Q368 -25 331 11T293 105Q293 179 343 234T472 289Q543 289 576 254T610 160Q610 76 561 26T428 -25ZM262 765Q202 765 165 801T127 895Q127 969 177 1024T306 1079Q377 1079 410 1044T444 950Q444 866 395 816T262 765Z" />
<glyph unicode=";" horiz-adv-x="514" d="M60 -499L-22 -392L-18 -372Q52 -335 96 -263T141 -111Q141 -47 116 3T52 66L58 118L188 274Q256 248 298 199T360 87T380 -35Q380 -141 341 -237Q301 -330 229 -399T60 -499ZM266 765Q206 765 169 801T131 895Q131 969
181 1024T310 1079Q381 1079 414 1044T448 950Q448 866 399 816T266 765Z" />
<glyph unicode="&lt;" horiz-adv-x="1350" d="M1071 174L192 677L208 803L1204 1306L1173 1057L496 730L1094 401L1071 174Z" />
<glyph unicode="=" horiz-adv-x="1049" d="M160 808L187 1008H996L968 808H160ZM99 319L127 519H935L908 319H99Z" />
<glyph unicode="&gt;" horiz-adv-x="1350" d="M247 176L278 426L955 754L357 1082L379 1310L1258 807L1243 680L247 176Z" />
<glyph unicode="?" horiz-adv-x="902" d="M234 512Q219 543 208 581T196 683Q196 734 222 782T296 875T409 960Q478 1008 533 1050T628 1135T689 1222T710 1318Q710 1386 671 1432T563 1503T409 1528Q351 1528 303 1522T203 1501L247 1687Q270 1707 331 1721T455
1736Q607 1736 722 1696T902 1569T967 1343Q967 1206 888 1096T645 898Q603 875 561 847T483 785T426 715T403 637Q403 604 406 573T414 514L234 512ZM298 -17Q238 -17 201 19T163 114Q163 188 213 243T342 298Q413 298 447 262T481 169Q481 85 432 34T298 -17Z"
/>
<glyph unicode="@" horiz-adv-x="1953" d="M897 -430Q657 -430 480 -332T205 -54T108 366Q108 615 185 824T405 1186T744 1423T1179 1508Q1389 1508 1545 1433T1789 1216T1876 878Q1876 720 1832 566T1708 286T1515 85T1264 10Q1205 10 1183 60T1161 189Q1161
219 1164 268T1173 362Q1126 254 1069 174T947 50T813 6Q754 6 702 41T611 135T549 266T526 414Q526 545 564 664T673 876T844 1022T1069 1076Q1102 1076 1143 1070T1221 1053T1283 1024L1461 1052Q1452 1019 1439 945T1411 776T1383 582T1362 398T1354 261Q1354
233 1357 217T1366 200Q1420 200 1467 243T1552 356T1617 511T1659 681T1674 839Q1674 1026 1608 1137T1420 1297T1135 1347Q949 1347 797 1269T534 1058T364 754T304 398Q304 193 376 48T585 -175T917 -253Q986 -253 1052 -244T1175 -218T1269 -184L1314 -316Q1246
-368 1135 -399T897 -430ZM866 226Q901 226 943 273T1026 394T1102 553T1162 716T1192 845Q1171 873 1128 887T1044 901Q979 901 927 858T837 746T781 600T761 456Q761 381 771 330T805 253T866 226Z" />
<glyph unicode="A" horiz-adv-x="1277" d="M-99 0L627 1494H960L1209 0H934L888 330H344L199 0H-99ZM426 524H861L769 1190L760 1304L716 1190L426 524Z" />
<glyph unicode="B" horiz-adv-x="1268" d="M485 -15Q470 -15 432 -13T348 -7T264 -2T211 0H88L290 1494H414Q428 1494 472 1496T569 1502T667 1507T724 1509Q888 1509 992 1469T1145 1354T1194 1175Q1194 1025 1117 924T897 785Q983 769 1045 727T1143 622T1178
477Q1180 308 1098 199T860 38T485 -15ZM530 179Q634 179 714 210T841 304T888 456Q888 577 817 628T602 679Q563 679 525 678T451 674L387 190Q404 187 428 184T480 180T530 179ZM478 866Q504 865 531 864T603 863Q748 863 831 934T915 1144Q915 1238 856 1278T670
1320Q650 1320 627 1320T581 1318T539 1314L478 866Z" />
<glyph unicode="C" horiz-adv-x="1140" d="M604 -16Q418 -16 305 75Q190 166 141 309T92 622Q92 872 190 1075Q286 1278 456 1394T838 1510Q890 1510 939 1504T1044 1482T1169 1441L1084 1195Q1036 1229 976 1254T816 1280Q660 1280 562 1182Q462 1085 417 937T371
629Q371 501 401 406T497 258T668 205Q729 205 793 220T910 257T992 301L1030 97Q1007 79 963 59T861 22T737 -5T604 -16Z" />
<glyph unicode="D" horiz-adv-x="1369" d="M536 -16Q478 -15 420 -11T309 -4T208 0H88L290 1494H416Q428 1494 461 1495T539 1499T628 1504T709 1508T762 1510Q1056 1510 1192 1348T1328 894Q1328 701 1274 535T1116 245T866 51T536 -16ZM579 187Q733 190 839
288Q944 386 995 545T1046 892Q1046 1050 1010 1142Q974 1232 899 1270T698 1308Q662 1308 614 1304T536 1292L391 212Q427 199 477 193T579 187Z" />
<glyph unicode="E" horiz-adv-x="1145" d="M88 0L290 1494H1114L1092 1280L534 1285L479 867L897 873L873 655L451 667L390 209L1039 221L1013 0H88Z" />
<glyph unicode="F" horiz-adv-x="1044" d="M88 0L290 1494H1096L1068 1280L534 1286L477 851L914 858L890 630L447 642L361 0H88Z" />
<glyph unicode="G" horiz-adv-x="1353" d="M630 -16Q443 -16 321 73Q200 161 145 301T88 602Q87 866 186 1075Q286 1281 460 1395T846 1510Q908 1510 956 1507T1050 1495T1147 1471T1268 1433L1202 1185Q1172 1207 1113 1231T981 1271T840 1288Q675 1288 569 1188Q462
1088 414 937T365 628Q365 500 398 402T499 249T672 193Q730 193 801 205T926 244L970 556H735L762 775H1255L1162 84Q1137 81 1108 74T1032 54Q929 24 833 4T630 -16Z" />
<glyph unicode="H" horiz-adv-x="1422" d="M82 0L283 1494H557L468 835H1018L1106 1494H1383L1180 0H905L991 641H442L355 0H82Z" />
<glyph unicode="I" horiz-adv-x="631" d="M109 0L311 1494H585L383 0H109Z" />
<glyph unicode="J" horiz-adv-x="627" d="M-132 -329L-171 -228Q-129 -217 -83 -183T5 -102T76 -7T113 84Q138 198 158 328T198 599T234 890T270 1192T308 1494H582L439 420Q420 275 405 189T381 74Q343 -63 271 -148T96 -276T-132 -329Z" />
<glyph unicode="K" horiz-adv-x="1257" d="M82 0L283 1494H548L452 792L1044 1494H1359L767 833Q789 795 808 759T852 674T916 552T1013 367Q1041 314 1069 263T1125 163T1178 74T1223 0H899Q894 8 877 39T838 116T790 214T743 314L586 636L406 445L345 0H82Z" />
<glyph unicode="L" horiz-adv-x="999" d="M88 0L290 1494H564L391 219L911 227L878 0H88Z" />
<glyph unicode="M" horiz-adv-x="1851" d="M723 -18L588 1068L569 1354L515 1063L278 0H6L397 1494H780L889 462L899 269L946 462L1327 1494H1725L1697 0H1421L1491 1057L1516 1354L1415 1079L988 -2L723 -18Z" />
<glyph unicode="N" horiz-adv-x="1419" d="M88 0L290 1494H543L929 596L999 366L1015 615L1121 1494H1384L1182 0H940L551 926L476 1174L464 895L347 0H88Z" />
<glyph unicode="O" horiz-adv-x="1353" d="M602 -16Q435 -16 321 64T149 282T90 590Q90 775 139 941T282 1235T508 1436T806 1510Q931 1510 1026 1463T1184 1332T1280 1138T1312 901Q1312 716 1264 551T1123 258T900 57T602 -16ZM630 191Q728 191 803 254T929
420T1005 647T1030 888Q1028 1033 998 1124T911 1258T771 1301Q675 1301 601 1237T475 1070T398 845T373 607Q376 391 444 291T630 191Z" />
<glyph unicode="P" horiz-adv-x="1213" d="M88 0L290 1494H424Q439 1494 478 1496T565 1502T658 1507T729 1510Q967 1510 1091 1407T1216 1098Q1217 921 1142 784Q1066 646 925 569T596 491Q548 491 502 493T429 497L361 0H88ZM598 699Q772 699 855 798T945 1090Q947
1203 884 1259T681 1315Q652 1315 612 1311T537 1300L458 712Q479 707 520 703T598 699Z" />
<glyph unicode="Q" horiz-adv-x="1355" d="M868 -382Q765 -382 684 -352T556 -262T509 -109Q509 -86 513 -47T526 20H700Q700 16 700 1T700 -22Q700 -79 734 -107T828 -145T960 -154Q1034 -154 1100 -147T1209 -127V-303Q1183 -325 1124 -343T996 -371T868 -382ZM602
-16Q435 -16 321 64T149 282T90 590Q90 775 139 941T282 1235T508 1436T806 1510Q931 1510 1026 1463T1184 1332T1280 1138T1312 901Q1312 716 1264 551T1123 258T900 57T602 -16ZM630 191Q728 191 803 254T929 420T1005 647T1030 888Q1028 1033 998 1124T911 1258T771
1301Q675 1301 601 1237T475 1070T398 845T373 607Q376 391 444 291T630 191Z" />
<glyph unicode="R" horiz-adv-x="1278" d="M87 0L289 1494H439Q469 1494 525 1498T638 1506T731 1510Q985 1510 1107 1416T1230 1137Q1230 959 1147 827T898 643Q924 620 948 579T995 486T1035 382Q1066 296 1094 221T1148 88T1195 0H890Q879 16 867 50T840 127T812
215T785 298Q771 348 753 399T713 495T667 567T617 596L442 597L361 0H87ZM674 809Q770 809 832 851T924 965T953 1125Q952 1225 889 1269T703 1314Q679 1314 646 1312T584 1307T537 1301L470 811Q496 810 547 810T674 809Z" />
<glyph unicode="S" horiz-adv-x="1025" d="M383 -16Q339 -16 284 -8T174 13T76 42T11 76L98 298Q124 274 175 252T286 216T393 201Q472 201 528 222T615 286T646 391Q646 464 597 527T448 660Q365 720 303 785T206 925T171 1091Q171 1226 235 1319T411 1461T661
1510Q779 1510 869 1485T1005 1426L918 1213Q880 1251 806 1274T662 1297Q596 1297 546 1279T467 1223T436 1129Q436 1079 465 1029T541 931T642 842Q729 779 793 716T892 583T927 427Q927 276 855 178T660 32T383 -16Z" />
<glyph unicode="T" horiz-adv-x="1112" d="M338 0L512 1291L129 1280L163 1494H1193L1163 1280L788 1291L614 0H338Z" />
<glyph unicode="U" horiz-adv-x="1371" d="M598 -16Q364 -16 246 100T126 425Q126 453 129 490T140 582L261 1494H536L418 620Q413 573 409 529T404 440Q404 314 462 257T639 199Q737 199 802 250T907 396T965 624L1081 1494H1352L1232 597Q1217 486 1191 397T1125
241Q1048 106 918 45T598 -16Z" />
<glyph unicode="V" horiz-adv-x="1175" d="M345 0L112 1494H385L522 481L542 244L622 481L1024 1494H1315L653 0H345Z" />
<glyph unicode="W" horiz-adv-x="1747" d="M311 -5L108 1494H383L479 485L503 270L566 484L857 1220L828 1494H1094L1177 485L1196 270L1258 484L1622 1494H1902L1306 -5H999L925 674L910 841L853 674L598 -5H311Z" />
<glyph unicode="X" horiz-adv-x="1174" d="M-78 0L470 783L157 1494H453L651 964L994 1494H1295L767 726L1106 0H802L584 560L236 0H-78Z" />
<glyph unicode="Y" horiz-adv-x="1099" d="M339 0L417 576L82 1494H370L557 905L585 800L632 905L968 1494H1269L686 576L608 0H339Z" />
<glyph unicode="Z" horiz-adv-x="1130" d="M-2 0L-28 86L731 1173L840 1282L219 1270L253 1494H1170L1194 1410L451 323L350 218L1016 229L979 0H-2Z" />
<glyph unicode="[" horiz-adv-x="770" d="M268 -221Q177 -221 131 -182T85 -62Q85 -34 87 -7T93 46L291 1464Q310 1604 362 1666T528 1729Q567 1729 627 1720T742 1701T818 1683L799 1553H541L328 -42H586L570 -170Q485 -195 415 -208T268 -221Z" />
<glyph unicode="\" horiz-adv-x="834" d="M578 -354L16 1560H233L797 -354H578Z" />
<glyph unicode="]" horiz-adv-x="770" d="M554 1729Q645 1729 691 1691T737 1570Q737 1542 735 1515T730 1462L531 44Q513 -96 461 -158T294 -221Q255 -221 195 -212T80 -192T4 -175L23 -45H281L494 1550H236L252 1678Q337 1703 407 1716T554 1729Z" />
<glyph unicode="^" horiz-adv-x="1332" d="M147 498L655 1495H884L1140 498H922L746 1215L368 498H147Z" />
<glyph unicode="_" horiz-adv-x="1304" d="M-108 -355L-88 -182H1256L1238 -355H-108Z" />
<glyph unicode="`" horiz-adv-x="531" d="M405 1213Q368 1227 311 1268T195 1362T88 1465T25 1546L203 1712L508 1295L405 1213Z" />
<glyph unicode="a" horiz-adv-x="1175" d="M390 -16Q228 -16 151 98T74 404Q74 554 120 685T253 916T460 1072T729 1128Q783 1128 847 1117T962 1090L1109 1128L954 0H710L723 215Q668 118 583 51T390 -16ZM470 177Q513 177 553 207T630 284T697 385T750 488L814
941Q765 956 703 956Q590 956 513 876Q435 795 397 674T358 426Q358 357 368 301T403 211T470 177Z" />
<glyph unicode="b" horiz-adv-x="1201" d="M460 -16Q406 -16 341 -4T225 25L78 -7L294 1598H556L487 1033L460 883Q497 950 549 1006T665 1095T806 1128Q969 1128 1045 1014T1122 708Q1122 530 1048 366Q999 254 916 168T718 33T460 -16ZM487 159Q599 159 680
238Q757 318 796 440T836 685Q836 797 811 865T725 933Q682 933 639 901T557 819T486 716T436 617L375 173Q423 159 487 159Z" />
<glyph unicode="c" horiz-adv-x="910" d="M465 -16Q343 -16 256 39T124 195T78 428Q78 611 150 773Q222 934 355 1031T665 1128Q705 1128 749 1124T833 1110T899 1089L831 835Q809 855 779 874T713 906T642 919Q606 919 570 901T500 848Q437 787 397 686T357 466Q357
323 396 255T528 186Q589 186 653 220T771 309L845 172Q816 128 757 85T621 13T465 -16Z" />
<glyph unicode="d" horiz-adv-x="1192" d="M389 -16Q227 -16 150 98T73 404Q73 581 148 749Q197 860 280 945T477 1079T733 1128Q758 1128 785 1126T841 1119L906 1598H1173L963 0H718L734 232Q697 164 645 108T529 18T389 -16ZM469 180Q511 180 553 211T634 293T704
397T756 497L816 939Q768 956 706 956Q594 956 516 876Q437 795 397 673T357 426Q357 353 368 298T403 211T469 180Z" />
<glyph unicode="e" horiz-adv-x="1050" d="M482 -16Q343 -16 254 45Q162 107 120 207T78 427Q78 622 159 785Q238 946 376 1037T685 1128Q785 1128 852 1094T953 1003T987 878Q987 774 936 693T797 553T598 454T365 394Q365 386 365 379T365 364Q369 280 408 230T538
179Q591 179 649 200T762 258T858 337L930 198Q901 158 851 120T737 51T608 2T482 -16ZM366 549Q425 552 487 577T602 644T687 739T720 852Q720 910 697 934T624 959Q584 959 551 935T484 870Q427 803 400 713T366 549Z" />
<glyph unicode="f" horiz-adv-x="715" d="M125 0L252 930H124L159 1114H276L293 1211Q303 1277 323 1334T374 1442Q433 1534 526 1585T740 1636Q790 1636 830 1630T901 1611L845 1415Q829 1430 798 1442T726 1454Q662 1454 622 1405T568 1264L544 1114H738L719
930H521L394 0H125Z" />
<glyph unicode="g" horiz-adv-x="1188" d="M382 -499Q338 -499 285 -493T186 -478T119 -459L168 -252Q194 -267 238 -283T335 -311T435 -323Q543 -323 597 -265T672 -94L728 219Q671 122 585 53T389 -16Q227 -16 150 98T73 404Q73 581 148 749Q197 860 280 945T477
1079T733 1128Q788 1128 851 1117T965 1090L1116 1128L953 -57Q942 -139 914 -204T844 -319Q760 -416 639 -457T382 -499ZM469 180Q510 180 551 209T629 285T698 385T752 488L815 942Q791 949 764 952T706 956Q594 956 516 876Q437 795 397 673T357 426Q357 353
368 298T403 211T469 180Z" />
<glyph unicode="h" horiz-adv-x="1230" d="M81 0L291 1598H559L496 1087L464 895Q541 1001 646 1064T865 1128Q986 1128 1047 1061T1109 840Q1109 825 1105 781T1092 669T1072 519T1049 348T1023 169T997 0H723Q733 69 741 128T757 240T771 342T785 438T799 536Q812
635 819 700T827 802Q828 862 806 884T737 907Q693 907 638 875T530 794T444 693L350 0H81Z" />
<glyph unicode="i" horiz-adv-x="611" d="M99 0L250 1114H525L372 0H99ZM431 1312Q376 1312 334 1352T291 1449Q291 1519 342 1570T466 1622Q529 1622 571 1583T614 1488Q614 1414 562 1363T431 1312Z" />
<glyph unicode="j" horiz-adv-x="610" d="M-93 -509Q-142 -509 -182 -501T-247 -474L-185 -327Q-177 -332 -161 -336T-133 -341Q-76 -341 -36 -306T33 -211T78 -80T106 66L249 1114H524L372 2Q353 -143 291 -259T132 -442T-93 -509ZM414 1283Q359 1283 317 1323T274
1420Q274 1490 325 1541T449 1593Q512 1593 554 1554T597 1459Q597 1385 545 1334T414 1283Z" />
<glyph unicode="k" horiz-adv-x="1112" d="M81 0L291 1598H560L350 0H81ZM757 2L465 618Q547 663 623 743T757 921T845 1114H1112Q1107 1038 1073 962T986 816T868 690T736 598L1070 2H757Z" />
<glyph unicode="l" horiz-adv-x="612" d="M101 2L317 1598H591L375 2H101Z" />
<glyph unicode="m" horiz-adv-x="1828" d="M78 2L229 1114H492L475 911Q551 1011 650 1069T856 1128Q961 1128 1021 1078T1093 914Q1168 1013 1266 1070T1470 1128Q1591 1128 1651 1061T1711 840Q1711 809 1702 724T1672 500Q1656 386 1640 268T1600 2H1327Q1333
55 1340 105T1355 204T1369 306T1384 415T1401 536Q1414 627 1421 695T1430 802Q1431 862 1409 884T1339 907Q1284 907 1215 858T1089 729Q1086 704 1081 665T1068 573Q1060 515 1051 453T1034 327T1016 204T1000 93T986 2H713Q719 47 728 110T747 246T768 394T787
537Q799 632 806 701T815 802Q816 861 794 884T724 907Q694 907 657 889T580 842T506 775T447 698L351 2H78Z" />
<glyph unicode="n" horiz-adv-x="1230" d="M77 0L229 1114H490L473 904Q551 1007 654 1067T868 1128Q990 1128 1052 1061T1114 840Q1114 817 1109 766T1094 646T1074 501Q1071 478 1065 437T1052 343T1036 230T1018 112T1001 0H727Q736 60 746 136T770 304T798
500Q813 614 821 688T830 802Q831 862 810 884T740 907Q707 907 667 889T585 839T508 769T446 690L350 0H77Z" />
<glyph unicode="o" horiz-adv-x="1132" d="M469 -16Q337 -16 250 42T119 207T75 453Q75 632 147 788Q218 942 352 1035T666 1128Q798 1128 884 1071T1012 909T1055 661Q1055 483 985 327Q914 172 781 78T469 -16ZM508 163Q579 163 630 210T713 333T761 499T776
675Q776 759 762 821T715 917T625 952Q553 952 501 903T416 775T367 607T351 434Q351 301 390 232T508 163Z" />
<glyph unicode="p" horiz-adv-x="1201" d="M11 -490L228 1114H476L467 907Q524 1000 609 1064T803 1128Q965 1128 1041 1015T1118 711Q1118 532 1045 367Q995 255 912 169T715 33T458 -16Q410 -16 348 -5L282 -490H11ZM484 159Q596 159 677 239Q754 319 793 441T833
689Q833 792 810 862T722 933Q680 933 638 902T556 821T485 718T435 619L374 172Q398 166 425 163T484 159Z" />
<glyph unicode="q" horiz-adv-x="1193" d="M628 -487L693 2L732 229Q695 162 644 107T528 18T389 -16Q227 -16 150 98T73 404Q73 554 120 685T254 916T463 1072T733 1128Q787 1128 851 1118T963 1091L1113 1131L898 -487H628ZM469 180Q509 180 549 208T626 281T695
380T750 481L812 943Q788 949 762 952T706 956Q619 956 554 908T445 782T379 611T357 426Q357 353 368 298T403 211T469 180Z" />
<glyph unicode="r" horiz-adv-x="829" d="M78 0L230 1114H493L475 898Q500 953 545 1006T652 1093T788 1128Q838 1128 852 1116L798 834Q788 844 762 849T703 854Q651 854 605 831T519 767T447 680L351 0H78Z" />
<glyph unicode="s" horiz-adv-x="906" d="M355 -16Q297 -16 234 -7T121 16T48 47L96 271Q124 247 170 227T266 193T356 180Q430 180 475 205T520 288Q520 324 502 353T445 416T340 502Q261 569 212 639T163 814Q163 920 219 990T370 1094T577 1128Q629 1128 680
1123T773 1109T832 1091L794 853Q777 873 742 892T662 922T573 934Q502 934 460 906T418 828Q418 787 441 753T500 689T576 625Q636 580 682 531T754 427T781 307Q781 193 723 122T569 17T355 -16Z" />
<glyph unicode="t" horiz-adv-x="770" d="M330 -18Q237 -18 181 30T125 175Q125 187 127 213T133 273T141 342L216 929H120L158 1114H261L340 1384H554L517 1114H753L731 929H493Q472 771 457 660T432 476T417 361T410 296T408 263Q408 225 420 203T469 180Q490
180 526 193T598 226T657 267L696 130Q658 93 599 60T469 4T330 -18Z" />
<glyph unicode="u" horiz-adv-x="1203" d="M371 -20Q245 -20 175 44T105 250Q105 291 112 363T133 536Q145 624 159 723T187 922T213 1114H486Q481 1080 474 1025T457 904T439 770T422 640T408 533Q397 448 392 390T386 301Q386 242 411 216T484 190Q527 190 575
219T670 297T756 406L852 1114H1125L975 0H728L741 200Q674 105 578 43T371 -20Z" />
<glyph unicode="v" horiz-adv-x="1051" d="M254 -18L198 348L95 1114H376L439 410L452 212L522 304Q601 419 655 547T736 815Q744 852 752 907T764 1018T769 1114H1022Q1024 1099 1027 1062T1029 969Q1024 842 985 718T875 473T704 233T478 -6L254 -18Z" />
<glyph unicode="w" horiz-adv-x="1676" d="M258 -11L202 348L97 1114H383L447 410L458 208L550 334Q601 414 642 496T714 665T762 842L730 1114H1005L1061 410L1076 208L1166 331Q1217 411 1255 490T1320 653T1364 833Q1375 898 1379 977T1384 1114H1636Q1637
1093 1639 1056T1640 978Q1636 814 1576 658T1396 339T1093 -6L879 -11L832 288L809 449Q771 371 726 300T622 155T480 -6L258 -11Z" />
<glyph unicode="x" horiz-adv-x="982" d="M-78 2L350 583L78 1114H396L528 761L754 1114H1036L624 549L916 2H600L448 372L207 2H-78Z" />
<glyph unicode="y" horiz-adv-x="1072" d="M62 -498Q12 -498 -42 -483T-138 -446L-66 -246Q-38 -263 1 -277T78 -291Q149 -291 210 -254T327 -155T432 -18H269L211 348L102 1114H383L460 400L496 97Q527 158 553 218T603 336Q652 436 684 533T737 736T767 968Q770
998 771 1037T772 1114H1026Q1028 1094 1028 1056T1028 974Q1022 814 975 640T836 276Q786 170 717 56T571 -164T417 -351Q358 -412 270 -455T62 -498Z" />
<glyph unicode="z" horiz-adv-x="952" d="M9 0L-37 50L517 806L618 903H148L177 1114H934L974 1066L418 297L328 212H840L819 0H9Z" />
<glyph unicode="{" horiz-adv-x="860" d="M372 -229Q274 -229 228 -190T192 -70L276 565Q281 598 247 623T163 667T68 697L93 859Q164 875 217 892T302 932T337 984L406 1483Q427 1625 496 1679T656 1734Q685 1734 725 1729T809 1716T889 1700T948 1683L926 1552H651L571
959Q564 905 533 872T449 817T323 772Q385 745 431 719T502 662T521 593L433 -41H703L686 -166Q597 -196 524 -212T372 -229Z" />
<glyph unicode="|" horiz-adv-x="834" d="M328 -182V1738H539V-182H328Z" />
<glyph unicode="}" horiz-adv-x="859" d="M529 1734Q626 1734 672 1696T708 1575L624 940Q620 907 653 882T737 838T832 808L807 647Q736 631 683 613T598 574T563 522L494 23Q475 -119 405 -173T244 -228Q214 -228 174 -223T92 -210T12 -194T-47 -177L-25 -46H249L328
547Q336 601 367 634T452 689T578 735Q516 762 469 788T398 844T378 912L466 1547H198L215 1673Q304 1704 377 1719T529 1734Z" />
<glyph unicode="~" horiz-adv-x="1110" d="M759 679Q696 679 647 706T548 774Q499 814 466 833T391 852Q340 852 294 824T208 741L100 848Q117 900 168 948T286 1027T420 1058Q483 1058 532 1032T636 963Q685 926 717 908T785 890Q841 890 888 917T972 999L1074
893Q1059 837 1010 788T894 709T759 679Z" />
<glyph unicode="&#xa0;" horiz-adv-x="360" />
<glyph unicode="&#xa1;" horiz-adv-x="670" d="M52 -424L280 836H485L343 -424H52ZM405 1023Q334 1023 301 1058T267 1148Q267 1234 322 1285T458 1337Q519 1337 556 1302T594 1210Q594 1135 539 1079T405 1023Z" />
<glyph unicode="&#xa2;" horiz-adv-x="1042" d="M319 -241L363 4Q237 45 174 158T110 428Q110 546 141 658T231 863T374 1022T566 1114L625 1362H818L761 1126Q814 1122 858 1113T933 1089L865 835Q843 855 812 874T745 906T675 919Q610 919 557 879T467 772T409
626T389 466Q389 323 428 255T560 186Q621 186 685 220T803 309L879 172Q835 109 751 54T553 -12L511 -241H319Z" />
<glyph unicode="&#xa3;" horiz-adv-x="1412" d="M100 -20Q42 -20 12 9T-19 86Q-18 144 22 185T120 249T232 272Q263 301 285 355T317 476L359 713H190L214 893H391L410 1012Q433 1160 502 1272T681 1446T940 1508Q1056 1508 1139 1482T1273 1409L1142 1213Q1134
1236 1103 1262T1028 1306T935 1325Q864 1325 811 1286T724 1174T675 1000L658 893H957L936 713H627Q618 654 610 606T594 522Q575 428 549 365T482 248Q525 224 584 209T706 185T823 177Q957 177 1022 219T1087 352Q1087 389 1062 426T1007 478L1186 621Q1230
594 1264 551T1318 457T1338 354Q1338 248 1294 164T1149 30T878 -20Q769 -20 672 -2T487 42T316 92Q277 43 216 12T100 -20Z" />
<glyph unicode="&#xa4;" horiz-adv-x="1474" d="M324 112L199 238L395 433Q359 485 340 546T320 674Q320 740 339 800T393 912L196 1108L320 1234L519 1035Q625 1102 750 1102Q816 1102 877 1084T992 1028L1186 1222L1310 1096L1116 900Q1180 798 1180 674Q1180
610 1163 551T1110 440L1308 242L1182 118L984 316Q932 282 874 264T750 246Q689 246 631 262T523 311L324 112ZM750 421Q817 421 871 456T958 549T990 674Q990 744 958 801T871 892T750 926Q682 926 627 891T541 799T509 674Q509 605 541 548T629 456T750 421Z"
/>
<glyph unicode="&#xa5;" horiz-adv-x="1502" d="M537 0L579 341H181L199 494H598L621 688H223L241 842H565L284 1494H557L760 950L793 843L848 954L1160 1494H1466L999 842H1320L1303 688H897L871 494H1275L1259 341H851L808 0H537Z" />
<glyph unicode="&#xa6;" horiz-adv-x="834" d="M328 -182V679H539V-182H328ZM328 878V1738H539V878H328Z" />
<glyph unicode="&#xa7;" horiz-adv-x="1354" d="M312 1296Q325 1389 375 1454T498 1558T656 1616T821 1634Q960 1634 1046 1611T1174 1562L1099 1347Q1071 1370 1002 1397T807 1423Q752 1423 704 1412T625 1373T585 1300Q579 1253 610 1218T696 1151T817 1088T948
1020T1066 933T1145 819T1160 665Q1143 547 1062 453T867 292L758 344Q782 370 814 417T874 518T906 612Q916 677 885 724T798 808T672 877T534 946T411 1029T328 1140T312 1296ZM1053 161Q1040 64 988 -2T859 -110T696 -169T524 -188Q387 -188 279 -159T130 -98L206
118Q239 90 325 57T539 24Q599 24 651 36T738 77T779 154Q785 196 754 228T666 286T543 340T410 402T290 482T209 591T194 743Q210 853 289 943T477 1094L596 1036Q573 1010 542 970T484 884T452 797Q443 735 474 693T563 619T690 559T829 499T953 423T1037 316T1053
161Z" />
<glyph unicode="&#xa8;" horiz-adv-x="794" d="M592 1330Q540 1330 501 1371T462 1467Q462 1536 508 1587T622 1638Q682 1638 721 1599T760 1506Q760 1433 714 1382T592 1330ZM154 1330Q103 1330 64 1372T25 1467Q25 1537 71 1587T185 1638Q244 1638 283 1599T322
1506Q322 1432 277 1381T154 1330Z" />
<glyph unicode="&#xa9;" horiz-adv-x="2057" d="M178 940Q178 1119 243 1274T424 1546T695 1729T1028 1795Q1206 1795 1360 1729T1631 1546T1813 1274T1879 940Q1879 762 1814 606T1632 332T1361 148T1028 81Q850 81 696 147T425 332T243 606T178 940ZM317 940Q317
789 370 656T519 422T744 264T1028 207Q1181 207 1311 264T1537 422T1686 656T1739 940Q1739 1092 1686 1224T1537 1458T1311 1616T1028 1673Q874 1673 745 1616T519 1458T370 1225T317 940ZM594 932Q594 1070 648 1180T811 1354T1078 1418Q1165 1418 1228 1400T1319
1366L1283 1180Q1249 1204 1193 1220T1071 1237Q954 1237 885 1160T815 961Q814 799 886 724T1070 649Q1147 649 1206 669T1298 709L1342 561Q1296 522 1212 493T1029 464Q895 464 798 529T647 700T594 932Z" />
<glyph unicode="&#xaa;" horiz-adv-x="890" d="M336 716Q218 716 155 790T91 994Q91 1131 162 1259Q233 1384 357 1462T632 1540Q677 1540 728 1532T816 1511L944 1537L794 716H604L612 854Q555 793 487 755T336 716ZM430 869Q467 869 513 899T607 982L688 1398Q673
1407 655 1412T618 1418Q525 1418 459 1354Q393 1289 359 1196T325 1017Q325 942 348 906T430 869Z" />
<glyph unicode="&#xab;" horiz-adv-x="1855" d="M762 137L154 518L181 689L883 1076L930 917L472 595L852 278L762 137ZM1489 137L881 518L908 689L1610 1076L1657 917L1199 595L1579 278L1489 137Z" />
<glyph unicode="&#xac;" horiz-adv-x="1338" d="M885 314L925 646H202L222 834H1160L1100 314H885Z" />
<glyph unicode="&#xad;" horiz-adv-x="1210" d="M209 613L237 815H1043L1016 613H209Z" />
<glyph unicode="&#xae;" horiz-adv-x="2057" d="M176 940Q176 1118 241 1273T423 1546T695 1729T1028 1795Q1206 1795 1361 1729T1633 1546T1815 1274T1881 940Q1881 762 1816 606T1633 332T1361 148T1028 81Q850 81 695 147T424 332T242 606T176 940ZM314 940Q314
789 368 656T519 422T746 264T1028 207Q1180 207 1310 264T1537 422T1687 656T1741 940Q1741 1091 1688 1223T1537 1457T1310 1615T1028 1672Q876 1672 746 1615T519 1457T368 1224T314 940ZM699 471V1412Q721 1412 742 1412T785 1412Q823 1412 860 1413T940 1416T1040
1417Q1221 1417 1307 1340T1393 1149Q1393 1042 1352 959T1205 845Q1249 818 1277 776T1329 685T1378 591Q1392 566 1408 542T1457 472H1228Q1209 494 1197 519T1169 576Q1149 618 1128 668T1076 761T999 821Q991 820 974 820T936 819T899 819V471H699ZM899 966Q913
964 935 963T979 961T1019 961Q1103 961 1146 1000T1189 1123Q1189 1193 1149 1232T1000 1270Q972 1269 949 1268T899 1259V966Z" />
<glyph unicode="&#xaf;" horiz-adv-x="603" d="M44 1366L55 1547H595L583 1366H44Z" />
<glyph unicode="&#xb0;" horiz-adv-x="907" d="M503 912Q411 912 335 956Q259 1001 216 1076T173 1240Q173 1336 218 1414Q264 1492 343 1536T522 1580Q615 1580 693 1537Q769 1493 812 1418T856 1253Q856 1156 810 1080Q765 1002 685 957T503 912ZM510 1064Q587
1064 636 1118T686 1251Q686 1324 637 1376T518 1429Q441 1429 392 1376T342 1243Q342 1170 390 1117T510 1064Z" />
<glyph unicode="&#xb1;" horiz-adv-x="1329" d="M513 265L542 519L566 664L437 656H206L231 865H463L588 853L599 1002L627 1251H849L823 1002L797 855L900 865H1160L1134 656H875L773 664L765 519L735 265H513ZM164 14L180 190H1048L1031 14H164Z" />
<glyph unicode="&#xb2;" horiz-adv-x="1045" d="M105 0L69 104Q172 176 275 258T463 427T601 595T653 749Q653 805 635 843T580 900T483 920Q412 920 359 897T259 844L167 985Q199 1012 251 1043T377 1097T543 1120Q639 1120 710 1094T829 1021T901 914T925 785Q925
680 872 589T736 420T563 282T399 176L911 191V0H105Z" />
<glyph unicode="&#xb3;" horiz-adv-x="995" d="M302 -10Q240 -10 190 -5T97 7L120 194Q155 190 194 185T275 180Q367 180 438 200T551 259T592 352Q592 395 561 433T443 479L308 448L319 625Q373 631 426 650T521 696T590 759T616 836Q616 879 582 905T468 931Q438
931 397 922T315 895T243 855L167 1010Q192 1034 250 1060T385 1104T545 1122Q632 1122 708 1095T830 1016T877 890Q877 814 845 751T751 642T605 566Q693 563 756 536T852 462T886 351Q886 267 841 200T714 87T527 15T302 -10Z" />
<glyph unicode="&#xb4;" horiz-adv-x="549" d="M142 1213L40 1295L354 1712L531 1546Q516 1515 467 1465T356 1361T236 1267T142 1213Z" />
<glyph unicode="&#xb5;" horiz-adv-x="1332" d="M82 -364L250 806Q253 827 253 852T247 896T226 915Q202 915 182 903T138 867L83 1004Q102 1029 147 1057T252 1106T370 1127Q448 1127 495 1083T541 959Q540 942 533 886T517 753T497 596T477 446T464 339Q464
264 498 230T591 196Q635 196 677 220T754 283T807 366L905 1114H1174Q1150 916 1132 772T1100 527T1078 355T1064 232Q1063 206 1074 189T1098 172Q1124 172 1153 190T1210 242L1278 124Q1249 92 1209 59T1118 4T999 -18Q926 -18 883 14T827 120Q791 75 754 44T672
-2T566 -18Q524 -17 473 2T403 56L339 -364H82Z" />
<glyph unicode="&#xb6;" horiz-adv-x="1306" d="M364 0L464 706Q356 709 278 757T157 888T114 1080Q114 1228 182 1329T380 1482T698 1534Q757 1534 830 1530T969 1521T1073 1516H1372L1354 1370L1190 1337L1018 0H786L956 1334H766L595 0H364Z" />
<glyph unicode="&#xb7;" horiz-adv-x="670" d="M308 605Q248 605 211 641T173 735Q173 809 223 864T352 919Q423 919 456 884T490 790Q490 706 441 656T308 605Z" />
<glyph unicode="&#xb8;" horiz-adv-x="0" d="M171 -457Q107 -457 49 -445T-27 -422L3 -247Q17 -254 46 -260T124 -267Q179 -267 224 -230T270 -109Q271 -52 267 -21T259 30L315 34L391 30Q411 1 428 -53T445 -180Q445 -321 370 -389T171 -457Z" />
<glyph unicode="&#xb9;" horiz-adv-x="747" d="M187 0L312 850Q267 837 233 834T148 823L117 972Q198 990 288 1035T441 1120H442L607 1101L450 0H187Z" />
<glyph unicode="&#xba;" horiz-adv-x="861" d="M439 707Q341 707 263 753T141 879T97 1062Q97 1203 160 1313T330 1488T568 1552Q677 1552 754 1507T873 1381T915 1196Q915 1050 853 940T684 769T439 707ZM456 852Q539 852 588 900T658 1026T679 1193Q679 1301
648 1357T551 1414Q486 1414 437 1366T359 1243T331 1086Q331 989 362 921T456 852Z" />
<glyph unicode="&#xbb;" horiz-adv-x="1864" d="M993 134L945 292L1402 613L1024 931L1113 1071L1722 692L1694 520L993 134ZM258 134L211 292L669 613L289 931L379 1071L987 692L960 520L258 134Z" />
<glyph unicode="&#xbc;" horiz-adv-x="2151" d="M269 620L394 1470Q349 1457 315 1454T230 1443L199 1592Q280 1610 370 1655T523 1740H524L689 1721L532 620H269ZM1345 1896H1549L632 -102H427L1345 1896ZM1611 0L1640 222H1178L1117 349Q1165 421 1219 513T1329
709T1438 918T1539 1120H1798L1846 1080L1456 477L1389 394L1664 407L1711 733L1945 758L1904 413L2066 422L2038 222H1879L1851 0H1611Z" />
<glyph unicode="&#xbd;" horiz-adv-x="2158" d="M269 620L394 1470Q349 1457 315 1454T230 1443L199 1592Q280 1610 370 1655T523 1740H524L689 1721L532 620H269ZM1345 1896H1549L632 -102H427L1345 1896ZM1218 0L1182 104Q1285 176 1388 258T1576 427T1714 595T1766
749Q1766 805 1748 843T1693 900T1596 920Q1525 920 1472 897T1372 844L1280 985Q1312 1012 1364 1043T1490 1097T1656 1120Q1752 1120 1823 1094T1942 1021T2014 914T2038 785Q2038 680 1985 589T1849 420T1676 282T1512 176L2024 191V0H1218Z" />
<glyph unicode="&#xbe;" horiz-adv-x="2419" d="M384 610Q322 610 272 615T179 627L202 814Q237 810 276 805T357 800Q449 800 520 820T633 879T674 972Q674 1015 643 1053T525 1099L390 1068L401 1245Q455 1251 508 1270T603 1316T672 1379T698 1456Q698 1499
664 1525T550 1551Q520 1551 479 1542T397 1515T325 1475L249 1630Q274 1654 332 1680T467 1724T627 1742Q714 1742 790 1715T912 1636T959 1510Q959 1434 927 1371T833 1262T687 1186Q775 1183 838 1156T934 1082T968 971Q968 887 923 820T796 707T609 635T384
610ZM1613 1896H1817L900 -102H695L1613 1896ZM1878 0L1907 222H1445L1384 349Q1432 421 1486 513T1596 709T1705 918T1806 1120H2065L2113 1080L1723 477L1656 394L1931 407L1978 733L2212 758L2171 413L2333 422L2305 222H2146L2118 0H1878Z" />
<glyph unicode="&#xbf;" horiz-adv-x="902" d="M740 809Q757 777 767 740T778 638Q778 587 752 539T679 446T566 361Q497 313 442 270T347 186T286 99T265 3Q265 -65 304 -111T412 -183T565 -208Q624 -208 672 -202T771 -180L728 -367Q705 -386 645 -400T520 -415Q368
-415 253 -375T73 -248T8 -23Q8 115 88 224T330 422Q373 446 415 474T492 536T549 606T572 684Q573 718 570 749T561 807L740 809ZM680 1338Q739 1338 776 1302T813 1207Q813 1134 764 1079T635 1023Q564 1023 530 1058T496 1152Q496 1235 546 1286T680 1338Z"
/>
<glyph unicode="&#xc0;" horiz-adv-x="1277" d="M-99 0L627 1494H960L1209 0H934L888 330H344L199 0H-99ZM426 524H861L769 1190L760 1304L716 1190L426 524ZM895 1635Q858 1649 801 1690T684 1785T577 1888T514 1968L693 2134L998 1718L895 1635Z" />
<glyph unicode="&#xc1;" horiz-adv-x="1277" d="M-99 0L627 1494H960L1209 0H934L888 330H344L199 0H-99ZM426 524H861L769 1190L760 1304L716 1190L426 524ZM771 1635L669 1718L984 2134L1161 1980Q1148 1956 1114 1917T1034 1833T938 1747T844 1676T771 1635Z" />
<glyph unicode="&#xc2;" horiz-adv-x="1277" d="M-99 0L627 1494H960L1209 0H934L888 330H344L199 0H-99ZM426 524H861L769 1190L760 1304L716 1190L426 524ZM541 1622L435 1692L777 2050H951L1149 1692L1026 1626L835 1830L541 1622Z" />
<glyph unicode="&#xc3;" horiz-adv-x="1277" d="M-99 0L627 1494H960L1209 0H934L888 330H344L199 0H-99ZM426 524H861L769 1190L760 1304L716 1190L426 524ZM963 1650Q904 1650 857 1673T777 1732Q749 1763 726 1778T670 1794Q633 1794 605 1776T543 1706L457
1815Q480 1863 517 1902T598 1963T689 1986Q741 1986 786 1965T867 1903Q894 1874 915 1860T961 1845Q990 1845 1014 1858T1059 1897T1097 1958L1187 1842Q1170 1794 1136 1750T1057 1678T963 1650Z" />
<glyph unicode="&#xc4;" horiz-adv-x="1277" d="M-99 0L627 1494H960L1209 0H934L888 330H344L199 0H-99ZM426 524H861L769 1190L760 1304L716 1190L426 524ZM581 1645Q530 1645 491 1687T451 1782Q451 1857 497 1905T612 1954Q671 1954 710 1914T750 1819Q750
1745 707 1695T581 1645ZM1025 1645Q974 1645 935 1687T896 1782Q896 1856 942 1905T1056 1954Q1116 1954 1155 1914T1195 1819Q1195 1746 1151 1696T1025 1645Z" />
<glyph unicode="&#xc5;" horiz-adv-x="1277" d="M-99 0L627 1494H960L1209 0H934L888 330H344L199 0H-99ZM426 524H861L769 1190L760 1304L716 1190L426 524ZM803 1631Q665 1631 587 1695T508 1876Q508 1973 563 2037Q619 2101 702 2130T871 2160Q1002 2160 1078
2097T1155 1917Q1155 1822 1106 1760Q1056 1695 976 1663T803 1631ZM817 1754Q895 1754 942 1788T989 1909Q989 1965 949 2002T851 2039Q779 2039 726 2003T673 1885Q673 1831 717 1793T817 1754Z" />
<glyph unicode="&#xc6;" horiz-adv-x="1836" d="M-122 0L626 1334L367 1360L389 1494H1805L1782 1280L1225 1285L1169 867L1587 873L1562 655L1142 667L1080 209L1729 221L1704 0H778L824 345H360L179 0H-122ZM467 544H851L952 1294L869 1301L467 544Z" />
<glyph unicode="&#xc7;" horiz-adv-x="1140" d="M604 -16Q418 -16 305 75Q190 166 141 309T92 622Q92 872 190 1075Q286 1278 456 1394T838 1510Q890 1510 939 1504T1044 1482T1169 1441L1084 1195Q1036 1229 976 1254T816 1280Q660 1280 562 1182Q462 1085 417
937T371 629Q371 501 401 406T497 258T668 205Q729 205 793 220T910 257T992 301L1030 97Q1007 79 963 59T861 22T737 -5T604 -16ZM432 -457Q368 -457 310 -445T234 -422L264 -247Q278 -254 307 -260T385 -267Q440 -267 485 -230T531 -109Q532 -52 528 -21T520
30L576 34L652 30Q672 1 689 -53T706 -180Q706 -321 631 -389T432 -457Z" />
<glyph unicode="&#xc8;" horiz-adv-x="1145" d="M88 0L290 1494H1114L1092 1280L534 1285L479 867L897 873L873 655L451 667L390 209L1039 221L1013 0H88ZM836 1634Q799 1648 742 1689T625 1784T518 1887T455 1967L634 2133L939 1717L836 1634Z" />
<glyph unicode="&#xc9;" horiz-adv-x="1145" d="M88 0L290 1494H1114L1092 1280L534 1285L479 867L897 873L873 655L451 667L390 209L1039 221L1013 0H88ZM712 1634L610 1717L925 2133L1102 1979Q1089 1955 1055 1916T975 1832T879 1746T785 1675T712 1634Z" />
<glyph unicode="&#xca;" horiz-adv-x="1145" d="M88 0L290 1494H1114L1092 1280L534 1285L479 867L897 873L873 655L451 667L390 209L1039 221L1013 0H88ZM482 1621L376 1691L718 2049H892L1090 1691L967 1625L776 1829L482 1621Z" />
<glyph unicode="&#xcb;" horiz-adv-x="1145" d="M88 0L290 1494H1114L1092 1280L534 1285L479 867L897 873L873 655L451 667L390 209L1039 221L1013 0H88ZM522 1644Q471 1644 432 1686T392 1781Q392 1856 438 1904T553 1953Q612 1953 651 1913T691 1818Q691 1744
648 1694T522 1644ZM966 1644Q915 1644 876 1686T837 1781Q837 1855 883 1904T997 1953Q1057 1953 1096 1913T1136 1818Q1136 1745 1092 1695T966 1644Z" />
<glyph unicode="&#xcc;" horiz-adv-x="631" d="M109 0L311 1494H585L383 0H109ZM560 1634Q523 1648 466 1689T349 1784T242 1887T179 1967L358 2133L663 1717L560 1634Z" />
<glyph unicode="&#xcd;" horiz-adv-x="631" d="M109 0L311 1494H585L383 0H109ZM436 1634L334 1717L649 2133L826 1979Q813 1955 779 1916T699 1832T603 1746T509 1675T436 1634Z" />
<glyph unicode="&#xce;" horiz-adv-x="631" d="M109 0L311 1494H585L383 0H109ZM206 1621L100 1691L442 2049H616L814 1691L691 1625L500 1829L206 1621Z" />
<glyph unicode="&#xcf;" horiz-adv-x="631" d="M109 0L311 1494H585L383 0H109ZM246 1644Q195 1644 156 1686T116 1781Q116 1856 162 1904T277 1953Q336 1953 375 1913T415 1818Q415 1744 372 1694T246 1644ZM690 1644Q639 1644 600 1686T561 1781Q561 1855 607
1904T721 1953Q781 1953 820 1913T860 1818Q860 1745 816 1695T690 1644Z" />
<glyph unicode="&#xd0;" horiz-adv-x="1369" d="M813 869L793 681H35L54 869H813ZM536 -16Q478 -15 420 -11T309 -4T208 0H88L290 1494H416Q428 1494 461 1495T539 1499T628 1504T709 1508T762 1510Q1056 1510 1192 1348T1328 894Q1328 701 1274 535T1116 245T866
51T536 -16ZM579 187Q733 190 839 288Q944 386 995 545T1046 892Q1046 1050 1010 1142Q974 1232 899 1270T698 1308Q662 1308 614 1304T536 1292L391 212Q427 199 477 193T579 187Z" />
<glyph unicode="&#xd1;" horiz-adv-x="1419" d="M88 0L290 1494H543L929 596L999 366L1015 615L1121 1494H1384L1182 0H940L551 926L476 1174L464 895L347 0H88ZM1014 1650Q955 1650 908 1673T828 1732Q800 1763 777 1778T721 1794Q684 1794 656 1776T594 1706L508
1815Q531 1863 568 1902T649 1963T740 1986Q792 1986 837 1965T918 1903Q945 1874 966 1860T1012 1845Q1041 1845 1065 1858T1110 1897T1148 1958L1238 1842Q1221 1794 1187 1750T1108 1678T1014 1650Z" />
<glyph unicode="&#xd2;" horiz-adv-x="1353" d="M602 -16Q435 -16 321 64T149 282T90 590Q90 775 139 941T282 1235T508 1436T806 1510Q931 1510 1026 1463T1184 1332T1280 1138T1312 901Q1312 716 1264 551T1123 258T900 57T602 -16ZM630 191Q728 191 803 254T929
420T1005 647T1030 888Q1028 1033 998 1124T911 1258T771 1301Q675 1301 601 1237T475 1070T398 845T373 607Q376 391 444 291T630 191ZM926 1635Q889 1649 832 1690T715 1785T608 1888T545 1968L724 2134L1029 1718L926 1635Z" />
<glyph unicode="&#xd3;" horiz-adv-x="1353" d="M602 -16Q435 -16 321 64T149 282T90 590Q90 775 139 941T282 1235T508 1436T806 1510Q931 1510 1026 1463T1184 1332T1280 1138T1312 901Q1312 716 1264 551T1123 258T900 57T602 -16ZM630 191Q728 191 803 254T929
420T1005 647T1030 888Q1028 1033 998 1124T911 1258T771 1301Q675 1301 601 1237T475 1070T398 845T373 607Q376 391 444 291T630 191ZM802 1635L700 1718L1015 2134L1192 1980Q1179 1956 1145 1917T1065 1833T969 1747T875 1676T802 1635Z" />
<glyph unicode="&#xd4;" horiz-adv-x="1353" d="M602 -16Q435 -16 321 64T149 282T90 590Q90 775 139 941T282 1235T508 1436T806 1510Q931 1510 1026 1463T1184 1332T1280 1138T1312 901Q1312 716 1264 551T1123 258T900 57T602 -16ZM630 191Q728 191 803 254T929
420T1005 647T1030 888Q1028 1033 998 1124T911 1258T771 1301Q675 1301 601 1237T475 1070T398 845T373 607Q376 391 444 291T630 191ZM572 1622L466 1692L808 2050H982L1180 1692L1057 1626L866 1830L572 1622Z" />
<glyph unicode="&#xd5;" horiz-adv-x="1353" d="M602 -16Q435 -16 321 64T149 282T90 590Q90 775 139 941T282 1235T508 1436T806 1510Q931 1510 1026 1463T1184 1332T1280 1138T1312 901Q1312 716 1264 551T1123 258T900 57T602 -16ZM630 191Q728 191 803 254T929
420T1005 647T1030 888Q1028 1033 998 1124T911 1258T771 1301Q675 1301 601 1237T475 1070T398 845T373 607Q376 391 444 291T630 191ZM994 1650Q935 1650 888 1673T808 1732Q780 1763 757 1778T701 1794Q664 1794 636 1776T574 1706L488 1815Q511 1863 548 1902T629
1963T720 1986Q772 1986 817 1965T898 1903Q925 1874 946 1860T992 1845Q1021 1845 1045 1858T1090 1897T1128 1958L1218 1842Q1201 1794 1167 1750T1088 1678T994 1650Z" />
<glyph unicode="&#xd6;" horiz-adv-x="1353" d="M602 -16Q435 -16 321 64T149 282T90 590Q90 775 139 941T282 1235T508 1436T806 1510Q931 1510 1026 1463T1184 1332T1280 1138T1312 901Q1312 716 1264 551T1123 258T900 57T602 -16ZM630 191Q728 191 803 254T929
420T1005 647T1030 888Q1028 1033 998 1124T911 1258T771 1301Q675 1301 601 1237T475 1070T398 845T373 607Q376 391 444 291T630 191ZM612 1645Q561 1645 522 1687T482 1782Q482 1857 528 1905T643 1954Q702 1954 741 1914T781 1819Q781 1745 738 1695T612 1645ZM1056
1645Q1005 1645 966 1687T927 1782Q927 1856 973 1905T1087 1954Q1147 1954 1186 1914T1226 1819Q1226 1746 1182 1696T1056 1645Z" />
<glyph unicode="&#xd7;" horiz-adv-x="1352" d="M332 276L180 463L540 777L234 1105L422 1272L712 918L1083 1275L1235 1088L850 755L1159 431L971 266L678 613L332 276Z" />
<glyph unicode="&#xd8;" horiz-adv-x="1354" d="M186 -128L99 -82L240 134Q163 216 124 334T84 592Q84 846 174 1056Q264 1266 426 1388T798 1511Q955 1511 1069 1436L1189 1630L1276 1584L1145 1371Q1224 1289 1264 1168T1305 902Q1305 650 1217 440Q1129 231
968 108T594 -15Q513 -15 443 6T313 69L186 -128ZM624 192Q740 192 833 291Q923 390 972 548T1022 881Q1022 1048 986 1145L452 264Q511 192 624 192ZM399 363L930 1242Q870 1301 764 1301Q649 1301 557 1201Q467 1101 417 943T366 616Q366 461 399 363Z" />
<glyph unicode="&#xd9;" horiz-adv-x="1371" d="M598 -16Q364 -16 246 100T126 425Q126 453 129 490T140 582L261 1494H536L418 620Q413 573 409 529T404 440Q404 314 462 257T639 199Q737 199 802 250T907 396T965 624L1081 1494H1352L1232 597Q1217 486 1191
397T1125 241Q1048 106 918 45T598 -16ZM917 1635Q880 1649 823 1690T706 1785T599 1888T536 1968L715 2134L1020 1718L917 1635Z" />
<glyph unicode="&#xda;" horiz-adv-x="1371" d="M598 -16Q364 -16 246 100T126 425Q126 453 129 490T140 582L261 1494H536L418 620Q413 573 409 529T404 440Q404 314 462 257T639 199Q737 199 802 250T907 396T965 624L1081 1494H1352L1232 597Q1217 486 1191
397T1125 241Q1048 106 918 45T598 -16ZM793 1635L691 1718L1006 2134L1183 1980Q1170 1956 1136 1917T1056 1833T960 1747T866 1676T793 1635Z" />
<glyph unicode="&#xdb;" horiz-adv-x="1371" d="M598 -16Q364 -16 246 100T126 425Q126 453 129 490T140 582L261 1494H536L418 620Q413 573 409 529T404 440Q404 314 462 257T639 199Q737 199 802 250T907 396T965 624L1081 1494H1352L1232 597Q1217 486 1191
397T1125 241Q1048 106 918 45T598 -16ZM563 1622L457 1692L799 2050H973L1171 1692L1048 1626L857 1830L563 1622Z" />
<glyph unicode="&#xdc;" horiz-adv-x="1371" d="M598 -16Q364 -16 246 100T126 425Q126 453 129 490T140 582L261 1494H536L418 620Q413 573 409 529T404 440Q404 314 462 257T639 199Q737 199 802 250T907 396T965 624L1081 1494H1352L1232 597Q1217 486 1191
397T1125 241Q1048 106 918 45T598 -16ZM603 1645Q552 1645 513 1687T473 1782Q473 1857 519 1905T634 1954Q693 1954 732 1914T772 1819Q772 1745 729 1695T603 1645ZM1047 1645Q996 1645 957 1687T918 1782Q918 1856 964 1905T1078 1954Q1138 1954 1177 1914T1217
1819Q1217 1746 1173 1696T1047 1645Z" />
<glyph unicode="&#xdd;" horiz-adv-x="1099" d="M339 0L417 576L82 1494H370L557 905L585 800L632 905L968 1494H1269L686 576L608 0H339ZM663 1635L561 1718L876 2134L1053 1980Q1040 1956 1006 1917T926 1833T830 1747T736 1676T663 1635Z" />
<glyph unicode="&#xde;" horiz-adv-x="1231" d="M90 0L290 1494H566L534 1253Q555 1255 587 1257T650 1260T701 1262Q937 1262 1062 1160T1188 856Q1188 683 1114 548Q1038 412 897 335T567 258Q524 258 478 262T402 269L367 0H90ZM569 466Q744 466 828 564T917
848Q919 957 855 1012T652 1067Q628 1067 615 1067T595 1065T580 1063T555 1060T508 1056L431 478Q453 472 492 469T569 466Z" />
<glyph unicode="&#xdf;" horiz-adv-x="1230" d="M731 -16Q654 -16 584 -3T476 30L500 252Q527 226 581 202T688 178Q780 178 827 209T874 317Q874 354 859 389T822 455T780 514Q726 584 693 649T659 770Q659 835 689 884T771 988Q837 1049 869 1107T902 1238Q902
1295 863 1333T754 1371Q678 1371 625 1327T536 1208T480 1040T446 848L334 2H67L184 908Q212 1118 284 1261T483 1477T806 1550Q912 1550 992 1517T1118 1419T1164 1259Q1164 1148 1121 1079T1015 950Q969 906 948 876T926 805Q926 775 947 738T1009 643Q1075
557 1110 485T1146 318Q1146 208 1092 134T944 22T731 -16Z" />
<glyph unicode="&#xe0;" horiz-adv-x="1175" d="M390 -16Q228 -16 151 98T74 404Q74 554 120 685T253 916T460 1072T729 1128Q783 1128 847 1117T962 1090L1109 1128L954 0H710L723 215Q668 118 583 51T390 -16ZM470 177Q513 177 553 207T630 284T697 385T750
488L814 941Q765 956 703 956Q590 956 513 876Q435 795 397 674T358 426Q358 357 368 301T403 211T470 177ZM824 1279Q788 1293 731 1334T614 1428T507 1531T443 1612L616 1778L922 1362L824 1279Z" />
<glyph unicode="&#xe1;" horiz-adv-x="1175" d="M390 -16Q228 -16 151 98T74 404Q74 554 120 685T253 916T460 1072T729 1128Q783 1128 847 1117T962 1090L1109 1128L954 0H710L723 215Q668 118 583 51T390 -16ZM470 177Q513 177 553 207T630 284T697 385T750
488L814 941Q765 956 703 956Q590 956 513 876Q435 795 397 674T358 426Q358 357 368 301T403 211T470 177ZM691 1279L596 1362L909 1778L1081 1624Q1068 1600 1034 1561T953 1477T857 1391T764 1320T691 1279Z" />
<glyph unicode="&#xe2;" horiz-adv-x="1175" d="M390 -16Q228 -16 151 98T74 404Q74 554 120 685T253 916T460 1072T729 1128Q783 1128 847 1117T962 1090L1109 1128L954 0H710L723 215Q668 118 583 51T390 -16ZM470 177Q513 177 553 207T630 284T697 385T750
488L814 941Q765 956 703 956Q590 956 513 876Q435 795 397 674T358 426Q358 357 368 301T403 211T470 177ZM497 1243L390 1313L731 1663H906L1104 1313L982 1246L791 1466L497 1243Z" />
<glyph unicode="&#xe3;" horiz-adv-x="1175" d="M390 -16Q228 -16 151 98T74 404Q74 554 120 685T253 916T460 1072T729 1128Q783 1128 847 1117T962 1090L1109 1128L954 0H710L723 215Q668 118 583 51T390 -16ZM470 177Q513 177 553 207T630 284T697 385T750
488L814 941Q765 956 703 956Q590 956 513 876Q435 795 397 674T358 426Q358 357 368 301T403 211T470 177ZM899 1238Q841 1238 794 1261T713 1321Q685 1351 663 1366T606 1382Q569 1382 541 1364T479 1294L393 1403Q429 1476 493 1526T625 1576Q678 1576 723 1554T803
1491Q830 1462 851 1448T898 1433Q927 1433 951 1446T995 1485T1033 1547L1124 1431Q1107 1382 1073 1338T994 1266T899 1238Z" />
<glyph unicode="&#xe4;" horiz-adv-x="1175" d="M390 -16Q228 -16 151 98T74 404Q74 554 120 685T253 916T460 1072T729 1128Q783 1128 847 1117T962 1090L1109 1128L954 0H710L723 215Q668 118 583 51T390 -16ZM470 177Q513 177 553 207T630 284T697 385T750
488L814 941Q765 956 703 956Q590 956 513 876Q435 795 397 674T358 426Q358 357 368 301T403 211T470 177ZM521 1307Q474 1307 437 1346T400 1435Q400 1504 443 1549T550 1594Q606 1594 642 1557T678 1469Q678 1400 638 1354T521 1307ZM965 1307Q918 1307 882
1346T845 1435Q845 1504 888 1549T995 1594Q1050 1594 1086 1557T1123 1469Q1123 1401 1082 1354T965 1307Z" />
<glyph unicode="&#xe5;" horiz-adv-x="1175" d="M390 -16Q228 -16 151 98T74 404Q74 554 120 685T253 916T460 1072T729 1128Q783 1128 847 1117T962 1090L1109 1128L954 0H710L723 215Q668 118 583 51T390 -16ZM470 177Q513 177 553 207T630 284T697 385T750
488L814 941Q765 956 703 956Q590 956 513 876Q435 795 397 674T358 426Q358 357 368 301T403 211T470 177ZM743 1224Q604 1224 526 1288T447 1468Q447 1565 502 1630Q557 1694 640 1724T810 1754Q941 1754 1017 1690T1094 1509Q1094 1415 1046 1352Q996 1287 915
1256T743 1224ZM756 1347Q834 1347 881 1381T928 1502Q928 1558 888 1595T790 1632Q718 1632 665 1595T612 1478Q612 1424 656 1386T756 1347Z" />
<glyph unicode="&#xe6;" horiz-adv-x="1656" d="M371 -16Q217 -16 144 95T70 404Q70 557 121 688T263 919T477 1073T746 1128Q821 1128 885 1113T1014 1059Q1140 1128 1290 1128Q1393 1128 1460 1095T1561 1006T1595 878Q1595 771 1544 690T1405 550T1205 453T973
394Q969 327 986 279T1042 205T1143 179Q1197 179 1255 200T1368 258T1463 337L1536 198Q1507 158 1456 120T1342 51T1214 2T1088 -16Q931 -16 835 63T704 270Q647 149 565 67T371 -16ZM456 189Q487 189 518 213T581 280T639 374T687 483Q692 551 704 612T738 730T787
834T852 926Q787 956 719 956Q626 956 557 908T440 781T370 607T347 417Q347 357 356 305T389 221T456 189ZM972 549Q1033 553 1096 578T1212 646T1297 740T1330 852Q1330 910 1306 934T1232 959Q1195 959 1159 938T1095 881Q1040 813 1009 719T972 549Z" />
<glyph unicode="&#xe7;" horiz-adv-x="910" d="M465 -16Q343 -16 256 39T124 195T78 428Q78 611 150 773Q222 934 355 1031T665 1128Q705 1128 749 1124T833 1110T899 1089L831 835Q809 855 779 874T713 906T642 919Q606 919 570 901T500 848Q437 787 397 686T357
466Q357 323 396 255T528 186Q589 186 653 220T771 309L845 172Q816 128 757 85T621 13T465 -16ZM328 -457Q264 -457 206 -445T130 -422L160 -247Q174 -254 203 -260T281 -267Q336 -267 381 -230T427 -109Q428 -52 424 -21T416 30L472 34L548 30Q568 1 585 -53T602
-180Q602 -321 527 -389T328 -457Z" />
<glyph unicode="&#xe8;" horiz-adv-x="1050" d="M482 -16Q343 -16 254 45Q162 107 120 207T78 427Q78 622 159 785Q238 946 376 1037T685 1128Q785 1128 852 1094T953 1003T987 878Q987 774 936 693T797 553T598 454T365 394Q365 386 365 379T365 364Q369 280
408 230T538 179Q591 179 649 200T762 258T858 337L930 198Q901 158 851 120T737 51T608 2T482 -16ZM366 549Q425 552 487 577T602 644T687 739T720 852Q720 910 697 934T624 959Q584 959 551 935T484 870Q427 803 400 713T366 549ZM782 1279Q746 1293 689 1334T572
1428T465 1531T401 1612L574 1778L880 1362L782 1279Z" />
<glyph unicode="&#xe9;" horiz-adv-x="1050" d="M482 -16Q343 -16 254 45Q162 107 120 207T78 427Q78 622 159 785Q238 946 376 1037T685 1128Q785 1128 852 1094T953 1003T987 878Q987 774 936 693T797 553T598 454T365 394Q365 386 365 379T365 364Q369 280
408 230T538 179Q591 179 649 200T762 258T858 337L930 198Q901 158 851 120T737 51T608 2T482 -16ZM366 549Q425 552 487 577T602 644T687 739T720 852Q720 910 697 934T624 959Q584 959 551 935T484 870Q427 803 400 713T366 549ZM649 1279L554 1362L867 1778L1039
1624Q1026 1600 992 1561T911 1477T815 1391T722 1320T649 1279Z" />
<glyph unicode="&#xea;" horiz-adv-x="1050" d="M482 -16Q343 -16 254 45Q162 107 120 207T78 427Q78 622 159 785Q238 946 376 1037T685 1128Q785 1128 852 1094T953 1003T987 878Q987 774 936 693T797 553T598 454T365 394Q365 386 365 379T365 364Q369 280
408 230T538 179Q591 179 649 200T762 258T858 337L930 198Q901 158 851 120T737 51T608 2T482 -16ZM366 549Q425 552 487 577T602 644T687 739T720 852Q720 910 697 934T624 959Q584 959 551 935T484 870Q427 803 400 713T366 549ZM455 1243L348 1313L689 1663H864L1062
1313L940 1246L749 1466L455 1243Z" />
<glyph unicode="&#xeb;" horiz-adv-x="1050" d="M482 -16Q343 -16 254 45Q162 107 120 207T78 427Q78 622 159 785Q238 946 376 1037T685 1128Q785 1128 852 1094T953 1003T987 878Q987 774 936 693T797 553T598 454T365 394Q365 386 365 379T365 364Q369 280
408 230T538 179Q591 179 649 200T762 258T858 337L930 198Q901 158 851 120T737 51T608 2T482 -16ZM366 549Q425 552 487 577T602 644T687 739T720 852Q720 910 697 934T624 959Q584 959 551 935T484 870Q427 803 400 713T366 549ZM479 1307Q432 1307 395 1346T358
1435Q358 1504 401 1549T508 1594Q564 1594 600 1557T636 1469Q636 1400 596 1354T479 1307ZM923 1307Q876 1307 840 1346T803 1435Q803 1504 846 1549T953 1594Q1008 1594 1044 1557T1081 1469Q1081 1401 1040 1354T923 1307Z" />
<glyph unicode="&#xec;" horiz-adv-x="611" d="M99 0L250 1114H525L372 0H99ZM482 1279Q446 1293 389 1334T272 1428T165 1531T101 1612L274 1778L580 1362L482 1279Z" />
<glyph unicode="&#xed;" horiz-adv-x="611" d="M99 0L250 1114H525L372 0H99ZM349 1279L254 1362L567 1778L739 1624Q726 1600 692 1561T611 1477T515 1391T422 1320T349 1279Z" />
<glyph unicode="&#xee;" horiz-adv-x="611" d="M99 0L250 1114H525L372 0H99ZM155 1243L48 1313L389 1663H564L762 1313L640 1246L449 1466L155 1243Z" />
<glyph unicode="&#xef;" horiz-adv-x="611" d="M99 0L250 1114H525L372 0H99ZM179 1307Q132 1307 95 1346T58 1435Q58 1504 101 1549T208 1594Q264 1594 300 1557T336 1469Q336 1400 296 1354T179 1307ZM623 1307Q576 1307 540 1346T503 1435Q503 1504 546 1549T653
1594Q708 1594 744 1557T781 1469Q781 1401 740 1354T623 1307Z" />
<glyph unicode="&#xf0;" horiz-adv-x="1174" d="M499 -16Q376 -16 281 42T132 201T78 430Q78 565 114 690T221 915T393 1071T623 1129Q693 1129 749 1110T835 1053Q822 1175 780 1261T650 1433L731 1446L555 1250L441 1348L633 1544L637 1447Q573 1510 499 1551T356
1609L407 1757Q459 1743 519 1719T641 1661T754 1587L656 1565L840 1776L947 1676L758 1465L777 1567Q890 1472 960 1353T1064 1098T1097 815Q1097 581 1028 393Q960 204 825 94T499 -16ZM528 150Q584 150 630 194T711 311T771 472T806 651T818 819Q814 854 790
889T725 947T630 970Q585 970 547 944T478 871Q441 814 416 739T378 581T365 420Q365 363 376 315T409 229T460 171T528 150Z" />
<glyph unicode="&#xf1;" horiz-adv-x="1230" d="M77 0L229 1114H490L473 904Q551 1007 654 1067T868 1128Q990 1128 1052 1061T1114 840Q1114 817 1109 766T1094 646T1074 501Q1071 478 1065 437T1052 343T1036 230T1018 112T1001 0H727Q736 60 746 136T770 304T798
500Q813 614 821 688T830 802Q831 862 810 884T740 907Q707 907 667 889T585 839T508 769T446 690L350 0H77ZM867 1238Q809 1238 762 1261T681 1321Q653 1351 631 1366T574 1382Q537 1382 509 1364T447 1294L361 1403Q397 1476 461 1526T593 1576Q646 1576 691
1554T771 1491Q798 1462 819 1448T866 1433Q895 1433 919 1446T963 1485T1001 1547L1092 1431Q1075 1382 1041 1338T962 1266T867 1238Z" />
<glyph unicode="&#xf2;" horiz-adv-x="1132" d="M469 -16Q337 -16 250 42T119 207T75 453Q75 632 147 788Q218 942 352 1035T666 1128Q798 1128 884 1071T1012 909T1055 661Q1055 483 985 327Q914 172 781 78T469 -16ZM508 163Q579 163 630 210T713 333T761 499T776
675Q776 759 762 821T715 917T625 952Q553 952 501 903T416 775T367 607T351 434Q351 301 390 232T508 163ZM755 1279Q719 1293 662 1334T545 1428T438 1531T374 1612L547 1778L853 1362L755 1279Z" />
<glyph unicode="&#xf3;" horiz-adv-x="1132" d="M469 -16Q337 -16 250 42T119 207T75 453Q75 632 147 788Q218 942 352 1035T666 1128Q798 1128 884 1071T1012 909T1055 661Q1055 483 985 327Q914 172 781 78T469 -16ZM508 163Q579 163 630 210T713 333T761 499T776
675Q776 759 762 821T715 917T625 952Q553 952 501 903T416 775T367 607T351 434Q351 301 390 232T508 163ZM622 1279L527 1362L840 1778L1012 1624Q999 1600 965 1561T884 1477T788 1391T695 1320T622 1279Z" />
<glyph unicode="&#xf4;" horiz-adv-x="1132" d="M469 -16Q337 -16 250 42T119 207T75 453Q75 632 147 788Q218 942 352 1035T666 1128Q798 1128 884 1071T1012 909T1055 661Q1055 483 985 327Q914 172 781 78T469 -16ZM508 163Q579 163 630 210T713 333T761 499T776
675Q776 759 762 821T715 917T625 952Q553 952 501 903T416 775T367 607T351 434Q351 301 390 232T508 163ZM428 1243L321 1313L662 1663H837L1035 1313L913 1246L722 1466L428 1243Z" />
<glyph unicode="&#xf5;" horiz-adv-x="1132" d="M469 -16Q337 -16 250 42T119 207T75 453Q75 632 147 788Q218 942 352 1035T666 1128Q798 1128 884 1071T1012 909T1055 661Q1055 483 985 327Q914 172 781 78T469 -16ZM508 163Q579 163 630 210T713 333T761 499T776
675Q776 759 762 821T715 917T625 952Q553 952 501 903T416 775T367 607T351 434Q351 301 390 232T508 163ZM830 1238Q772 1238 725 1261T644 1321Q616 1351 594 1366T537 1382Q500 1382 472 1364T410 1294L324 1403Q360 1476 424 1526T556 1576Q609 1576 654 1554T734
1491Q761 1462 782 1448T829 1433Q858 1433 882 1446T926 1485T964 1547L1055 1431Q1038 1382 1004 1338T925 1266T830 1238Z" />
<glyph unicode="&#xf6;" horiz-adv-x="1132" d="M469 -16Q337 -16 250 42T119 207T75 453Q75 632 147 788Q218 942 352 1035T666 1128Q798 1128 884 1071T1012 909T1055 661Q1055 483 985 327Q914 172 781 78T469 -16ZM508 163Q579 163 630 210T713 333T761 499T776
675Q776 759 762 821T715 917T625 952Q553 952 501 903T416 775T367 607T351 434Q351 301 390 232T508 163ZM452 1307Q405 1307 368 1346T331 1435Q331 1504 374 1549T481 1594Q537 1594 573 1557T609 1469Q609 1400 569 1354T452 1307ZM896 1307Q849 1307 813
1346T776 1435Q776 1504 819 1549T926 1594Q981 1594 1017 1557T1054 1469Q1054 1401 1013 1354T896 1307Z" />
<glyph unicode="&#xf7;" horiz-adv-x="1337" d="M226 658L253 867L1149 866L1123 658H226ZM626 182Q566 182 528 218T490 312Q490 386 541 441T670 497Q741 497 774 461T808 368Q808 284 759 233T626 182ZM720 1017Q661 1017 623 1053T585 1147Q585 1221 635 1276T764
1331Q835 1331 868 1296T902 1202Q902 1118 853 1068T720 1017Z" />
<glyph unicode="&#xf8;" horiz-adv-x="1132" d="M212 -129L135 -91L281 154L334 200L758 992L796 1034L933 1258L1008 1220L871 998L820 946L378 132L338 88L212 -129ZM469 -16Q337 -16 250 42T119 207T75 453Q75 632 147 788Q218 942 352 1035T666 1128Q798 1128
884 1071T1012 909T1055 661Q1055 483 985 327Q914 172 781 78T469 -16ZM508 163Q579 163 630 210T713 333T761 499T776 675Q776 759 762 821T715 917T625 952Q553 952 501 903T416 775T367 607T351 434Q351 301 390 232T508 163Z" />
<glyph unicode="&#xf9;" horiz-adv-x="1203" d="M371 -20Q245 -20 175 44T105 250Q105 291 112 363T133 536Q145 624 159 723T187 922T213 1114H486Q481 1080 474 1025T457 904T439 770T422 640T408 533Q397 448 392 390T386 301Q386 242 411 216T484 190Q527
190 575 219T670 297T756 406L852 1114H1125L975 0H728L741 200Q674 105 578 43T371 -20ZM777 1279Q741 1293 684 1334T567 1428T460 1531T396 1612L569 1778L875 1362L777 1279Z" />
<glyph unicode="&#xfa;" horiz-adv-x="1203" d="M371 -20Q245 -20 175 44T105 250Q105 291 112 363T133 536Q145 624 159 723T187 922T213 1114H486Q481 1080 474 1025T457 904T439 770T422 640T408 533Q397 448 392 390T386 301Q386 242 411 216T484 190Q527
190 575 219T670 297T756 406L852 1114H1125L975 0H728L741 200Q674 105 578 43T371 -20ZM643 1279L548 1362L861 1778L1033 1624Q1020 1600 986 1561T905 1477T809 1391T716 1320T643 1279Z" />
<glyph unicode="&#xfb;" horiz-adv-x="1203" d="M371 -20Q245 -20 175 44T105 250Q105 291 112 363T133 536Q145 624 159 723T187 922T213 1114H486Q481 1080 474 1025T457 904T439 770T422 640T408 533Q397 448 392 390T386 301Q386 242 411 216T484 190Q527
190 575 219T670 297T756 406L852 1114H1125L975 0H728L741 200Q674 105 578 43T371 -20ZM450 1243L343 1313L684 1663H859L1057 1313L935 1246L744 1466L450 1243Z" />
<glyph unicode="&#xfc;" horiz-adv-x="1203" d="M371 -20Q245 -20 175 44T105 250Q105 291 112 363T133 536Q145 624 159 723T187 922T213 1114H486Q481 1080 474 1025T457 904T439 770T422 640T408 533Q397 448 392 390T386 301Q386 242 411 216T484 190Q527
190 575 219T670 297T756 406L852 1114H1125L975 0H728L741 200Q674 105 578 43T371 -20ZM474 1307Q427 1307 390 1346T353 1435Q353 1504 396 1549T503 1594Q559 1594 595 1557T631 1469Q631 1400 591 1354T474 1307ZM918 1307Q871 1307 835 1346T798 1435Q798
1504 841 1549T948 1594Q1003 1594 1039 1557T1076 1469Q1076 1401 1035 1354T918 1307Z" />
<glyph unicode="&#xfd;" horiz-adv-x="1072" d="M62 -498Q12 -498 -42 -483T-138 -446L-66 -246Q-38 -263 1 -277T78 -291Q149 -291 210 -254T327 -155T432 -18H269L211 348L102 1114H383L460 400L496 97Q527 158 553 218T603 336Q652 436 684 533T737 736T767
968Q770 998 771 1037T772 1114H1026Q1028 1094 1028 1056T1028 974Q1022 814 975 640T836 276Q786 170 717 56T571 -164T417 -351Q358 -412 270 -455T62 -498ZM564 1279L469 1362L782 1778L954 1624Q941 1600 907 1561T826 1477T730 1391T637 1320T564 1279Z"
/>
<glyph unicode="&#xfe;" horiz-adv-x="1201" d="M10 -491L78 -7L294 1598H556L487 1033L460 883Q497 950 549 1006T665 1095T806 1128Q969 1128 1045 1014T1122 708Q1122 530 1048 366Q999 254 916 168T718 33T460 -16Q434 -16 404 -13T340 -3L326 -135L280 -491H10ZM487
159Q599 159 680 238Q757 318 796 440T836 685Q836 797 811 865T725 933Q676 933 625 893T525 784T436 634L375 173Q423 159 487 159Z" />
<glyph unicode="&#xff;" horiz-adv-x="1072" d="M62 -498Q12 -498 -42 -483T-138 -446L-66 -246Q-38 -263 1 -277T78 -291Q149 -291 210 -254T327 -155T432 -18H269L211 348L102 1114H383L460 400L496 97Q527 158 553 218T603 336Q652 436 684 533T737 736T767
968Q770 998 771 1037T772 1114H1026Q1028 1094 1028 1056T1028 974Q1022 814 975 640T836 276Q786 170 717 56T571 -164T417 -351Q358 -412 270 -455T62 -498ZM395 1307Q348 1307 311 1346T274 1435Q274 1504 317 1549T424 1594Q480 1594 516 1557T552 1469Q552
1400 512 1354T395 1307ZM839 1307Q792 1307 756 1346T719 1435Q719 1504 762 1549T869 1594Q924 1594 960 1557T997 1469Q997 1401 956 1354T839 1307Z" />
<glyph unicode="&#x2013;" horiz-adv-x="1481" d="M209 614L242 815H1315L1281 614H209Z" />
<glyph unicode="&#x2014;" horiz-adv-x="1959" d="M209 614L242 815H1792L1759 614H209Z" />
<glyph unicode="&#x2018;" horiz-adv-x="698" d="M390 885Q348 905 307 953T240 1070T213 1225Q213 1340 255 1435T371 1602T540 1715L634 1592L632 1570Q591 1550 554 1504T494 1395T471 1265Q471 1207 492 1146T547 1053L542 1013L390 885Z" />
<glyph unicode="&#x2019;" horiz-adv-x="680" d="M280 879L186 1002L188 1024Q229 1044 265 1090T325 1199T348 1329Q348 1406 327 1458T271 1541L275 1581L430 1710Q472 1690 513 1641T580 1523T607 1379Q607 1267 565 1169T449 997T280 879Z" />
<glyph unicode="&#x201a;" horiz-adv-x="680" d="M147 -526L54 -402L56 -380Q97 -359 132 -313T189 -205T211 -77Q211 -37 198 3T163 76T120 130L124 170L297 305Q339 284 380 231T448 108T475 -27Q475 -139 433 -237T316 -409T147 -526Z" />
<glyph unicode="&#x201c;" horiz-adv-x="1187" d="M879 885Q837 905 796 953T729 1070T702 1225Q702 1340 744 1435T860 1602T1029 1715L1123 1592L1121 1570Q1080 1550 1043 1504T983 1395T960 1265Q960 1207 981 1146T1036 1053L1031 1013L879 885ZM390 885Q348
905 307 953T240 1070T213 1225Q213 1340 255 1435T371 1602T540 1715L634 1592L632 1570Q591 1550 554 1504T494 1395T471 1265Q471 1207 492 1146T547 1053L542 1013L390 885Z" />
<glyph unicode="&#x201d;" d="M280 879L186 1002L188 1024Q229 1044 265 1090T325 1199T348 1329Q348 1406 327 1458T271 1541L275 1581L430 1710Q472 1690 513 1641T580 1523T607 1379Q607 1267 565 1169T449 997T280 879ZM761 879L667 1002L669 1024Q710 1044
746 1090T806 1199T829 1329Q829 1406 808 1458T752 1541L756 1581L911 1710Q953 1690 994 1641T1061 1523T1088 1379Q1088 1267 1046 1169T930 997T761 879Z" />
<glyph unicode="&#x201e;" horiz-adv-x="1171" d="M147 -526L54 -402L56 -380Q97 -359 132 -313T189 -205T211 -77Q211 -37 198 3T163 76T120 130L124 170L297 305Q339 284 380 231T448 108T475 -27Q475 -139 433 -237T316 -409T147 -526ZM638 -526L545 -402L547
-380Q588 -359 623 -313T680 -205T702 -77Q702 -37 689 3T654 76T611 130L615 170L788 305Q830 284 871 231T939 108T966 -27Q966 -139 924 -237T807 -409T638 -526Z" />
<glyph unicode="&#x2022;" horiz-adv-x="838" d="M400 496Q327 496 278 546T228 666Q228 729 261 786T349 880T472 916Q547 916 595 869T644 750Q644 686 612 628T525 533T400 496Z" />
<glyph unicode="&#x2039;" horiz-adv-x="1128" d="M762 137L154 518L181 689L883 1076L930 917L472 595L852 278L762 137Z" />
<glyph unicode="&#x203a;" horiz-adv-x="1128" d="M259 134L211 292L668 613L289 931L379 1071L986 692L960 520L259 134Z" />
</font>
</defs>
</svg>
