<?xml version="1.0" standalone="no"?>
<!DOCTYPE svg PUBLIC "-//W3C//DTD SVG 1.1//EN" "http://www.w3.org/Graphics/SVG/1.1/DTD/svg11.dtd">
<svg xmlns="http://www.w3.org/2000/svg">
<defs >
<font id="MerriweatherSans" horiz-adv-x="1245" ><font-face
    font-family="Merriweather Sans SemiBold"
    units-per-em="2000"
    panose-1="0 0 0 0 0 0 0 0 0 0"
    ascent="1968"
    descent="-546"
    alphabetic="0" />
<glyph unicode=" " horiz-adv-x="358" />
<glyph unicode="!" horiz-adv-x="617" d="M196 531L157 1738H468L437 531H196ZM300 -22Q229 -22 181 28T132 152Q131 205 156 249T224 319T316 346Q396 346 440 296T485 173Q486 120 461 76T394 5T300 -22Z" />
<glyph unicode="&quot;" horiz-adv-x="1239" d="M264 918L227 1653H506L471 918H264ZM769 918L732 1653H1011L976 918H769Z" />
<glyph unicode="#" horiz-adv-x="1507" d="M309 0L433 1340H668L540 0H309ZM826 0L948 1340H1182L1054 0H826ZM1354 842H189V1026H1354V842ZM1310 325H152V518H1310V325Z" />
<glyph unicode="$" horiz-adv-x="1357" d="M610 1447L616 1721H793L786 1447H610ZM562 -226L568 45H745L740 -226H562ZM656 -16Q556 -16 466 -1T310 34T216 72L264 301Q302 279 361 258T491 222T636 208Q761 208 823 248T886 377Q886 439 853 481T750 562T572
654Q480 699 397 761T262 909T209 1108Q209 1214 250 1288T362 1410T525 1480T720 1502Q868 1502 963 1474T1098 1420L1047 1200Q999 1233 921 1260T732 1287Q660 1287 605 1270T517 1217T485 1130Q485 1070 512 1029T601 949T761 862Q844 821 918 777T1049 680T1138
559T1171 403Q1171 268 1108 175T930 33T656 -16Z" />
<glyph unicode="%" horiz-adv-x="2061" d="M460 618Q336 617 253 674T128 829T85 1043Q85 1182 143 1278T293 1425T492 1477Q623 1479 706 1422T828 1267T867 1050Q867 911 810 815T659 669T460 618ZM620 0L1213 1494H1439L846 0H620ZM474 797Q554 797 596 862T638
1042Q638 1157 597 1227T478 1297Q399 1297 357 1232T314 1051Q314 940 356 869T474 797ZM1569 25Q1445 24 1362 81T1237 236T1194 451Q1194 589 1251 685T1401 832T1601 884Q1731 887 1814 830T1936 675T1975 458Q1975 319 1918 223T1768 77T1569 25ZM1584 205Q1663
205 1704 271T1746 450Q1746 566 1705 636T1587 706Q1508 706 1465 641T1422 460Q1422 349 1464 277T1584 205Z" />
<glyph unicode="&amp;" horiz-adv-x="1500" d="M943 239Q951 245 962 255T982 275T994 288Q1038 312 1067 351T1112 440T1128 546Q1128 614 1118 661T1102 728H1335Q1340 705 1348 660T1357 545Q1357 399 1303 302T1155 144Q1151 141 1143 130T1125 109T1110 96Q1043
54 939 19T728 -16Q532 -16 393 30T180 168T106 391Q106 497 158 576T299 711T495 807Q498 808 514 812T546 820T566 826Q652 857 715 901T814 1007T849 1158Q849 1193 833 1231T780 1297T684 1324Q610 1324 561 1280T511 1152Q511 1101 522 1063T557 987T617 903T704
784L736 743Q762 707 808 647T908 518T1015 389T1107 290Q1162 241 1208 212T1306 168T1424 150V0Q1402 -6 1369 -11T1293 -16Q1172 -16 1088 27T922 140Q874 190 814 258T694 400T580 544T489 665L461 700Q415 761 369 828T291 974T259 1145Q259 1316 374 1413T684
1510Q807 1510 896 1462T1033 1335T1082 1160Q1082 1060 1053 987T973 858T851 762T698 684Q692 681 670 675T626 662T597 653Q528 624 476 587T396 504T367 402Q367 342 399 292T505 211T701 181Q783 181 837 198T943 239Z" />
<glyph unicode="&apos;" horiz-adv-x="734" d="M264 918L227 1653H506L471 918H264Z" />
<glyph unicode="(" horiz-adv-x="813" d="M568 -336Q540 -318 487 -269T370 -138T250 64T156 342T119 702Q119 876 155 1023T247 1289T365 1494T482 1635T568 1707L734 1610Q703 1585 645 1517T526 1334T420 1062T372 698Q370 533 395 398T463 157T556 -28T653
-159T734 -239L568 -336Z" />
<glyph unicode=")" horiz-adv-x="813" d="M245 1728Q273 1710 326 1661T443 1530T563 1328T657 1050T694 690Q694 516 658 369T566 103T448 -102T331 -243T245 -315L79 -218Q110 -193 168 -125T287 58T393 330T441 694Q443 859 418 994T350 1235T257 1420T160
1551T79 1631L245 1728Z" />
<glyph unicode="*" horiz-adv-x="1269" d="M530 604L548 885L587 1049L466 927L236 766L125 960L375 1088L536 1135Q533 1137 510 1143T457 1157T403 1171T373 1179L121 1301L225 1496L462 1336L585 1221Q584 1225 578 1247T565 1300T551 1354T543 1384L516 1666H738L720
1388L682 1223Q684 1226 701 1243T740 1282T779 1321T801 1342L1036 1503L1142 1311L893 1187L731 1137L894 1092L1149 975L1036 776L809 933L683 1048Q684 1045 689 1022T703 969T717 916T724 886L752 604H530Z" />
<glyph unicode="+" horiz-adv-x="1364" d="M571 262V473L579 655L419 649H207V863H419L579 855L571 1037V1248H791V1037L784 855L928 863H1157V649H928L784 655L791 473V262H571Z" />
<glyph unicode="," horiz-adv-x="634" d="M159 -398V-374Q202 -348 234 -279T266 -122Q266 -79 249 -35T207 40T154 75V154L344 285Q407 261 446 207T503 89T521 -33Q521 -141 485 -236T388 -398T256 -493L159 -398Z" />
<glyph unicode="-" horiz-adv-x="1190" d="M180 545V763H1010V545H180Z" />
<glyph unicode="." horiz-adv-x="617" d="M301 -22Q230 -22 182 28T132 152Q131 205 156 249T224 319T316 346Q396 346 440 296T485 173Q486 120 461 76T394 5T301 -22Z" />
<glyph unicode="/" horiz-adv-x="928" d="M72 -354L623 1562H856L305 -354H72Z" />
<glyph unicode="0" horiz-adv-x="1382" d="M683 -16Q530 -16 422 48T246 222T148 472T118 766Q121 992 199 1157T410 1413T707 1504Q862 1504 969 1445T1141 1282T1235 1043T1263 754Q1261 523 1187 350T983 81T683 -16ZM690 210Q827 208 897 340T967 744Q967
904 938 1024T849 1211T694 1278Q559 1278 488 1150T416 774Q416 616 445 489T536 287T690 210Z" />
<glyph unicode="1" horiz-adv-x="919" d="M352 0V1184Q295 1170 241 1158T130 1136L102 1305Q150 1318 209 1342T327 1394T434 1452T508 1503L642 1483L641 0H352Z" />
<glyph unicode="2" horiz-adv-x="1229" d="M143 0L103 131Q187 185 280 260T462 424T621 612T735 812T777 1015Q777 1141 715 1206T541 1272Q442 1272 353 1235T212 1144L109 1304Q148 1345 215 1390T377 1467T596 1499Q765 1499 869 1436T1021 1268T1069 1037Q1069
887 996 740T794 458T500 210L1124 230V0H143Z" />
<glyph unicode="3" horiz-adv-x="1142" d="M136 14L134 201Q180 192 228 186T320 179Q448 179 545 211T697 303T752 441Q752 508 723 562T629 645T456 668L345 642L299 824Q357 835 409 851T501 886Q589 927 636 985T685 1113Q688 1204 629 1246T478 1288Q375
1288 302 1256T177 1186L85 1355Q119 1386 187 1420T342 1480T521 1505Q653 1505 753 1465T911 1347T968 1158Q968 1061 925 984T808 850T646 760V791Q782 791 871 739T1003 606T1047 435Q1047 314 966 210T737 43T385 -21Q311 -21 249 -10T136 14Z" />
<glyph unicode="4" horiz-adv-x="1377" d="M158 294L91 408Q132 492 168 572T238 729T306 882T372 1033T439 1186T510 1343T586 1506H676L863 1400Q826 1332 794 1269T733 1147T676 1029T618 911T556 789T487 657L393 500H1296V294H158ZM801 0V509L829 950H1074V0H801Z" />
<glyph unicode="5" horiz-adv-x="1229" d="M307 -20Q282 -20 243 -18T175 -8V188Q193 187 211 187T246 186Q412 186 537 227T732 343T801 516Q801 637 733 693T513 749Q452 749 381 733T239 693L184 725L243 1486H1046L1020 1252H450L415 920Q478 936 537 944T649
953Q864 953 975 842T1087 530Q1087 418 1035 319T883 144T637 24T307 -20Z" />
<glyph unicode="6" horiz-adv-x="1375" d="M137 578Q137 746 188 890T327 1152T523 1357T750 1498T976 1571L1045 1399Q906 1363 795 1287T605 1108T484 891T439 661Q436 529 459 419T541 244T705 178Q788 178 844 219T927 330T955 485Q955 595 927 658T854 747T757
773Q701 773 663 760T603 734L542 890Q558 909 598 931T696 970T830 986Q956 986 1047 927T1187 766T1236 540Q1236 431 1202 331T1098 153T923 29T675 -16Q512 -16 391 63T204 278T137 578Z" />
<glyph unicode="7" horiz-adv-x="1244" d="M318 0Q361 92 407 195T501 409T595 632T684 852T767 1058T837 1239L132 1241V1487H1090L1151 1401L634 0H318Z" />
<glyph unicode="8" horiz-adv-x="1319" d="M671 -16Q559 -16 461 8T287 80T170 202T128 376Q128 451 165 528T287 674T510 793L635 677Q565 650 511 609T426 513T394 392Q394 326 423 275T514 194T674 164Q735 164 790 188T879 258T913 364Q913 429 874 476T769
563T625 639T469 720T325 819T221 952T181 1133Q181 1248 242 1332T412 1462T665 1509Q810 1509 914 1465T1075 1342T1131 1162Q1131 1083 1096 1003T985 855T786 748L666 862Q778 897 827 974T879 1141Q882 1223 825 1276T662 1329Q566 1329 504 1280T441 1153Q441
1085 481 1032T589 934T735 849T895 764T1043 668T1151 549T1194 396Q1195 260 1125 169T936 31T671 -16Z" />
<glyph unicode="9" horiz-adv-x="1390" d="M148 962Q148 1120 213 1243T403 1436T711 1507Q879 1507 997 1428T1178 1214T1241 913Q1241 738 1188 588T1045 314T843 99T611 -50T382 -125L304 40Q452 77 569 162T769 359T896 593T943 825Q946 966 921 1075T837
1247T675 1310Q599 1310 544 1273T458 1172T428 1033Q428 867 488 787T639 707Q703 707 733 718T790 740L846 587Q823 560 751 528T558 495Q431 495 339 559T198 729T148 962Z" />
<glyph unicode=":" horiz-adv-x="617" d="M301 -22Q230 -22 182 28T132 152Q131 205 156 249T224 319T316 346Q396 346 440 296T485 173Q486 120 461 76T394 5T301 -22ZM301 730Q230 730 182 780T132 904Q131 957 156 1001T224 1071T316 1098Q396 1098 440 1048T485
925Q486 872 461 828T394 757T301 730Z" />
<glyph unicode=";" horiz-adv-x="617" d="M406 -398V-374Q449 -348 481 -279T513 -122Q513 -79 496 -35T454 40T401 75V154L591 285Q654 261 693 207T750 89T768 -33Q768 -141 732 -236T635 -398T503 -493L406 -398ZM301 730Q230 730 182 780T132 904Q131 957
156 1001T224 1071T316 1098Q396 1098 440 1048T485 925Q486 872 461 828T394 757T301 730Z" />
<glyph unicode="&lt;" horiz-adv-x="1340" d="M183 681V832L1117 1292V1040L467 740V770L1117 487V229L183 681Z" />
<glyph unicode="=" horiz-adv-x="1380" d="M242 907V1107H1139V907H242ZM242 406V605H1139V406H242Z" />
<glyph unicode="&gt;" horiz-adv-x="1339" d="M1152 681V832L218 1292V1040L868 740V770L218 487V229L1152 681Z" />
<glyph unicode="?" horiz-adv-x="1066" d="M340 498Q311 539 286 604T259 759Q258 836 295 892T389 993T503 1080T602 1169T648 1279Q673 1420 586 1498T312 1576Q235 1576 186 1565T113 1546V1749Q130 1761 170 1772T263 1791T372 1799Q534 1799 648 1759T830
1650T925 1490T940 1300Q934 1217 902 1157T822 1052T724 971T626 898T549 820T515 719Q509 662 522 613T553 498H340ZM468 -22Q401 -22 354 26T305 146Q304 195 329 237T395 304T484 330Q561 330 604 282T648 165Q649 114 624 72T558 4T468 -22Z" />
<glyph unicode="@" horiz-adv-x="2127" d="M996 -459Q820 -459 665 -407T391 -247T207 26T140 417Q140 663 221 863T445 1208T779 1429T1186 1506Q1411 1506 1585 1425T1859 1185T1959 797Q1959 600 1910 451T1777 200T1592 48T1384 -4Q1300 -4 1258 40T1209 178Q1206
225 1213 304T1259 520Q1261 520 1275 520T1303 520T1319 520Q1290 434 1247 342T1145 172T1015 45T854 -4Q786 -4 720 43T610 186T570 428Q572 529 606 637T709 837T884 987T1138 1045Q1199 1045 1261 1033T1365 991L1543 1023Q1531 970 1515 896T1481 737T1447
571T1418 419Q1398 294 1403 235T1444 175Q1498 175 1554 217T1659 338T1736 526T1766 766Q1766 939 1717 1051T1582 1227T1389 1317T1163 1344Q997 1344 848 1280T583 1096T401 807T334 427Q334 224 391 85T547 -138T767 -259T1016 -296Q1128 -296 1210 -280T1350
-241T1445 -198L1485 -342Q1419 -385 1294 -422T996 -459ZM913 203Q953 203 998 244T1088 352T1170 499T1235 660T1270 809Q1248 840 1203 854T1112 869Q1041 869 983 833T884 738T820 605T795 457Q792 340 822 272T913 203Z" />
<glyph unicode="A" horiz-adv-x="1395" d="M304 0H2L548 1500H851L1394 0H1086L743 1073L698 1236L652 1073L304 0ZM299 332L339 538H1021L1063 332H299Z" />
<glyph unicode="B" horiz-adv-x="1362" d="M181 0V1488L318 1486Q368 1486 419 1489T531 1496T665 1500Q850 1500 966 1455T1136 1329T1190 1135Q1190 1062 1167 992T1093 869T965 796Q1054 789 1125 741T1238 617T1280 448Q1280 313 1226 209T1039 45T672 -14Q579
-14 480 -9T324 0H181ZM465 863Q487 860 514 859T572 857T629 856T678 857Q787 857 850 915T914 1103Q914 1208 840 1255T626 1303Q610 1303 576 1302T510 1298T465 1290V863ZM465 205Q481 196 519 191T601 185T679 183Q828 183 908 238T988 432Q988 553 914 610T679
667Q655 667 625 667T564 667T508 665T465 661V205Z" />
<glyph unicode="C" horiz-adv-x="1283" d="M90 738Q90 925 146 1067T302 1306T532 1453T809 1502Q918 1502 992 1491T1115 1466T1200 1444L1161 1193Q1143 1205 1105 1224T999 1258T830 1274Q697 1274 596 1212T438 1034T381 755Q381 594 435 471T591 277T839
207Q909 207 979 222T1104 258T1186 301V62Q1145 45 1093 27T974 -3T816 -16Q590 -16 428 78T178 341T90 738Z" />
<glyph unicode="D" horiz-adv-x="1469" d="M170 0V1486Q191 1486 212 1486T253 1486T294 1486Q337 1486 399 1490T531 1498T668 1502Q1036 1502 1211 1314T1386 784Q1386 530 1297 350T1041 76T645 -16Q554 -14 457 -7T280 0Q261 0 243 0T207 0T170 0ZM458 214Q499
205 558 201T674 197Q796 199 889 256T1034 435T1086 750Q1086 952 1036 1071T886 1242T634 1294Q584 1294 536 1290T458 1280V214Z" />
<glyph unicode="E" horiz-adv-x="1201" d="M170 0V1486H1063V1269H457V869H913V656H457V222H1128V0H170Z" />
<glyph unicode="F" horiz-adv-x="1083" d="M170 0V1486H1057V1269H458V843H908V626H458V0H170Z" />
<glyph unicode="G" horiz-adv-x="1434" d="M91 736Q91 934 147 1078T302 1317T533 1456T817 1502Q927 1502 997 1492T1121 1469T1238 1444L1228 1196Q1162 1230 1068 1253T816 1277Q686 1277 590 1216T440 1040T386 762Q386 603 430 476T565 275T792 201Q871 201
941 212T1051 245V604L1101 562L808 577V784H1320V88Q1283 87 1241 71T1141 34T1000 -1T798 -16Q577 -16 419 78T176 342T91 736Z" />
<glyph unicode="H" horiz-adv-x="1529" d="M170 0V1486H458V857H1073V1486H1359V0H1073V643H458V0H170Z" />
<glyph unicode="I" horiz-adv-x="676" d="M193 0V1486H482V0H193Z" />
<glyph unicode="J" horiz-adv-x="738" d="M38 -324L-35 -177Q40 -148 114 -87T220 86Q243 170 247 298T252 594V1486H540V598Q540 453 541 324T522 88Q503 -14 449 -89T323 -215T176 -293T38 -324Z" />
<glyph unicode="K" horiz-adv-x="1371" d="M170 0V1486H452V791L990 1486H1311L729 756L678 711L405 395L452 599V0H170ZM948 113Q909 186 862 263T766 416T671 562T585 694L686 783L778 887Q801 852 844 786T943 633T1058 453T1173 270T1269 108Q1280 90 1290
72T1311 36T1333 0H1008Q996 20 985 44T948 113Z" />
<glyph unicode="L" horiz-adv-x="1064" d="M170 0V1486H455V229H1008V0H170Z" />
<glyph unicode="M" horiz-adv-x="1899" d="M100 0L260 1486H655L886 678L960 349L1023 678L1238 1486H1619L1799 0H1518L1440 856L1414 1273L1316 851L1058 -12H845L572 851L468 1273L440 856L370 0H100Z" />
<glyph unicode="N" horiz-adv-x="1534" d="M170 0V1486H435L1014 579L1208 198H1139L1100 669V1486H1364V0H1083L529 877L304 1309H388L431 798V0H170Z" />
<glyph unicode="O" horiz-adv-x="1537" d="M763 -16Q551 -20 399 76T166 348T90 752Q95 1007 188 1172T438 1418T793 1502Q995 1505 1144 1412T1372 1148T1447 745Q1442 490 1353 323T1112 72T763 -16ZM769 197Q947 197 1051 334T1155 755Q1155 903 1114 1024T991
1216T785 1287Q676 1287 584 1232T437 1056T382 740Q382 591 425 468T555 271T769 197Z" />
<glyph unicode="P" horiz-adv-x="1285" d="M170 0V1486H289Q384 1486 479 1494T678 1502Q847 1502 968 1452T1154 1291T1219 1000Q1219 749 1069 611T633 473Q567 473 526 474T458 475V0H170ZM458 690Q498 685 540 683T624 681Q708 681 779 708T894 804T937 1001Q937
1153 857 1229T620 1299Q580 1298 538 1295T458 1284V690Z" />
<glyph unicode="Q" horiz-adv-x="1548" d="M1195 -313Q1061 -313 973 -284T822 -182T696 20L830 61H932Q960 -1 993 -35T1079 -82T1215 -96Q1254 -96 1291 -90T1362 -72V-271Q1338 -285 1299 -299T1195 -313ZM763 -16Q551 -20 399 76T166 348T90 752Q95 1007 188
1172T438 1418T793 1502Q995 1505 1144 1412T1372 1148T1447 745Q1442 490 1353 323T1112 72T763 -16ZM769 197Q947 197 1051 334T1155 755Q1155 903 1114 1024T991 1216T785 1287Q676 1287 584 1232T437 1056T382 740Q382 591 425 468T555 271T769 197Z" />
<glyph unicode="R" horiz-adv-x="1370" d="M458 0H170V1486Q189 1486 207 1486T245 1486T283 1486Q357 1486 457 1494T690 1502Q797 1502 892 1480T1060 1406T1175 1269T1217 1060Q1217 919 1170 825T1037 677T836 606Q795 599 754 595T644 587T458 584V0ZM458
786Q478 783 518 782T599 780T666 780Q798 780 866 851T934 1051Q934 1126 909 1181T822 1266T652 1296Q600 1296 550 1292T458 1278V786ZM1000 0Q987 18 978 39T946 108Q915 175 888 255T829 410T757 534T659 590L748 659L924 664Q982 639 1026 577T1109 434T1182
267T1258 109Q1273 82 1288 55T1319 0H1000Z" />
<glyph unicode="S" horiz-adv-x="1156" d="M562 -16Q462 -16 372 -1T216 34T122 72L170 301Q208 279 267 258T397 222T542 208Q667 208 729 248T792 377Q792 439 759 481T656 562T478 654Q386 699 303 761T168 909T115 1108Q115 1214 156 1288T268 1410T431 1480T626
1502Q774 1502 869 1474T1004 1420L954 1200Q905 1233 827 1260T638 1287Q566 1287 511 1270T423 1217T391 1130Q391 1070 418 1029T507 949T667 862Q750 821 824 777T955 680T1044 559T1077 403Q1077 268 1014 175T836 33T562 -16Z" />
<glyph unicode="T" horiz-adv-x="1248" d="M480 0V1266H45V1486H1203V1266H769V0H480Z" />
<glyph unicode="U" horiz-adv-x="1464" d="M740 -16Q524 -16 393 61T204 282T146 623L148 1486H433L431 667Q430 485 466 386T571 249T742 210Q836 210 901 249T1001 387T1036 667V1486H1319V618Q1319 315 1178 150T740 -16Z" />
<glyph unicode="V" horiz-adv-x="1347" d="M556 -8L6 1486H311L611 601L681 343L753 601L1038 1486H1341L800 -8H556Z" />
<glyph unicode="W" horiz-adv-x="1909" d="M407 -14L7 1486H297L497 583L563 161H526L597 583L838 1486H1077L1324 583L1408 160H1367L1430 582L1620 1486H1902L1515 -14H1231L992 869L910 1366L991 1365L914 869L673 -14H407Z" />
<glyph unicode="X" horiz-adv-x="1320" d="M32 0L514 808L520 713L39 1486L355 1488L581 1102L700 893H646L762 1102L977 1486H1277L806 701L792 794L1289 0H970L732 414L613 624L683 626L567 414L334 0H32Z" />
<glyph unicode="Y" horiz-adv-x="1241" d="M476 0V617L510 487L-14 1486H297L579 912L652 728H610L672 912L952 1486H1255L733 486L768 615V0H476Z" />
<glyph unicode="Z" horiz-adv-x="1238" d="M95 0L52 82L746 1190L805 1269H130V1486H1146L1189 1408L511 310L439 218H1141V0H95Z" />
<glyph unicode="[" horiz-adv-x="812" d="M172 61V1452Q172 1548 188 1602T246 1678T362 1701Q466 1701 536 1693T683 1677V1532H427V-32L683 -33V-171Q606 -180 536 -187T362 -195Q287 -195 246 -171T189 -91T172 61Z" />
<glyph unicode="\" horiz-adv-x="928" d="M836 -354L285 1562H52L603 -354H836Z" />
<glyph unicode="]" horiz-adv-x="812" d="M640 61V1452Q640 1548 624 1602T566 1678T450 1701Q346 1701 276 1693T129 1677V1532H385V-32L129 -33V-171Q206 -180 276 -187T450 -195Q525 -195 566 -171T623 -91T640 61Z" />
<glyph unicode="^" horiz-adv-x="1342" d="M166 490L579 1496H762L1176 490H910L663 1148H679L437 490H166Z" />
<glyph unicode="_" horiz-adv-x="1656" d="M-38 -402V-252H1694V-402H-38Z" />
<glyph unicode="`" horiz-adv-x="628" d="M578 1351L445 1233Q414 1248 359 1289T244 1386T132 1500T55 1604L247 1760Q290 1696 347 1622T465 1477T578 1351Z" />
<glyph unicode="a" horiz-adv-x="1162" d="M440 -16Q336 -16 257 26T134 143T89 320Q89 423 145 497T296 611Q362 639 438 654T591 675T734 681L784 619L734 527Q697 526 649 521T556 506T479 481Q436 462 405 430T373 336Q373 254 418 214T542 173Q582 173 622
184T693 211T734 238L785 180L749 94Q704 54 624 19T440 -16ZM1014 0H749V166H734V771Q734 860 687 888T552 916Q489 916 421 905T294 875T197 836L135 1020Q165 1038 235 1064T396 1111T579 1131Q723 1131 820 1098T965 981T1014 746V0Z" />
<glyph unicode="b" horiz-adv-x="1268" d="M159 1622H437V1188L428 972L437 966V166L159 62V1622ZM605 -19Q534 -19 461 -10T324 12T216 39T159 62L437 214Q459 195 505 186T618 176Q694 176 755 222T853 356T890 572Q891 758 827 837T653 916Q583 916 526 891T437
840L400 982Q423 1006 464 1040T572 1101T739 1128Q858 1128 957 1071T1118 896T1179 598Q1179 414 1108 275T907 59T605 -19Z" />
<glyph unicode="c" horiz-adv-x="988" d="M75 545Q75 709 135 841T317 1050T625 1128Q733 1128 810 1110T914 1073L876 857Q838 881 782 895T642 910Q574 910 509 878T401 774T353 579Q350 450 388 366T492 240T639 199Q718 199 784 216T887 254L932 84Q883 36
788 10T586 -16Q418 -16 305 58T133 258T75 545Z" />
<glyph unicode="d" horiz-adv-x="1270" d="M851 0V142L832 154V920L840 927L832 1188V1625H1110V0H851ZM528 -16Q411 -16 311 42T150 218T89 517Q89 701 159 838T354 1052T650 1128Q753 1128 821 1105T907 1067L833 889Q806 912 759 921T650 930Q573 930 512 887T415
757T379 541Q376 360 439 280T615 199Q683 199 741 223T833 273L870 133Q846 108 805 73T696 11T528 -16Z" />
<glyph unicode="e" horiz-adv-x="1145" d="M613 -16Q362 -16 228 136T93 560Q93 722 153 850T331 1052T617 1128Q703 1129 780 1105T918 1030T1015 895T1053 695Q1053 633 1051 582T1042 493H246L266 652H791Q796 732 783 797T727 900T607 938Q534 938 479 898T395
762T370 499Q374 384 415 316T524 219T682 189Q726 189 782 197T890 219T969 248L1017 93Q980 63 916 38T773 -1T613 -16Z" />
<glyph unicode="f" horiz-adv-x="823" d="M231 0V918H76V1077L231 1114V1218Q231 1341 268 1423T367 1553T502 1622T647 1643Q710 1643 757 1635T821 1622V1417Q796 1426 760 1432T664 1438Q597 1438 555 1390T513 1238V1114H773V918H513V0H231Z" />
<glyph unicode="g" horiz-adv-x="1247" d="M592 -504Q344 -503 215 -419T86 -172Q86 -112 115 -65T191 16T293 68L459 50Q440 34 417 13T375 -41T357 -128Q357 -188 380 -235T457 -308T605 -335Q686 -335 753 -318T860 -263T900 -169Q900 -116 881 -77T808 -17T650
4H490Q445 4 412 8T347 20Q330 24 322 30T295 41Q220 64 191 108T161 210Q161 249 179 290T235 371T335 438L497 405Q458 390 433 358T408 290Q408 237 438 218T542 198H742Q872 198 955 172T1084 103T1149 4T1168 -110Q1168 -206 1122 -279T995 -403T811 -478T592
-504ZM579 378Q445 378 341 423T178 550T118 746Q118 873 176 957T340 1084T582 1128Q718 1130 825 1089T992 965T1053 756Q1053 634 996 550T833 422T579 378ZM584 542Q677 542 733 584T789 750Q789 851 740 903T592 956Q534 956 488 939T416 877T390 753Q390
667 435 605T584 542ZM925 911L872 1027Q892 1054 954 1086T1098 1118H1222V911H925Z" />
<glyph unicode="h" horiz-adv-x="1285" d="M159 0V1625H439V1182L424 963L414 990Q452 1022 511 1054T642 1107T785 1130Q967 1135 1051 1030T1135 687V0H854V665Q854 799 815 852T672 902Q626 901 561 881T439 814V0H159Z" />
<glyph unicode="i" horiz-adv-x="616" d="M168 0V1113H448V0H168ZM293 1542Q224 1542 176 1584T127 1698Q127 1746 153 1785T222 1849T313 1873Q391 1873 434 1829T477 1716Q477 1642 422 1592T293 1542Z" />
<glyph unicode="j" horiz-adv-x="606" d="M-90 -476V-287Q-75 -294 -37 -300T32 -307Q112 -307 144 -241T177 -23V1113H455V58Q455 -146 410 -267T278 -442T71 -496Q50 -496 16 -493T-48 -486T-90 -476ZM305 1287Q236 1287 188 1329T139 1443Q139 1491 165 1530T234
1594T325 1618Q403 1618 446 1574T489 1461Q489 1387 434 1337T305 1287Z" />
<glyph unicode="k" horiz-adv-x="1187" d="M1150 1114L413 335L429 397L433 204V0H159V662V1622H433V863L422 556L373 598L826 1114H1150ZM538 517L724 705L1190 0H875L538 517Z" />
<glyph unicode="l" horiz-adv-x="606" d="M163 0V1625H444V0H163Z" />
<glyph unicode="m" horiz-adv-x="1955" d="M161 0V1113H415L419 994Q459 1023 519 1054T649 1106T793 1130Q909 1134 983 1093T1092 957T1127 700V0H847V665Q847 752 833 805T781 882T673 902Q626 902 561 880T441 814V0H161ZM1114 810L1061 985Q1095 1014 1156
1047T1295 1105T1458 1130Q1574 1132 1651 1092T1766 958T1804 700V0H1524V666Q1524 753 1510 806T1459 882T1350 902Q1292 902 1227 875T1114 810Z" />
<glyph unicode="n" horiz-adv-x="1282" d="M161 0V1113H415L419 990Q457 1021 517 1052T649 1106T794 1130Q970 1134 1050 1038T1131 698V0H850V665Q850 798 815 853T672 903Q640 902 600 892T519 863T441 814V0H161Z" />
<glyph unicode="o" horiz-adv-x="1218" d="M599 -16Q456 -16 357 32T196 163T107 353T80 580Q83 759 153 881T345 1065T619 1128Q810 1128 924 1046T1089 828T1137 534Q1135 355 1065 233T875 47T599 -16ZM606 180Q732 179 790 274T849 546Q849 652 826 739T750
878T613 931Q487 933 429 840T370 574Q370 467 394 378T470 235T606 180Z" />
<glyph unicode="p" horiz-adv-x="1273" d="M160 -494V1114H420V978L440 954V112L437 44L440 -136V-494H160ZM620 -16Q519 -16 453 8T367 47L440 226Q468 201 513 191T620 180Q697 180 758 225T855 357T893 572Q894 757 831 836T655 916Q587 916 530 891T440 840L403
981Q426 1006 467 1040T575 1101T741 1128Q860 1128 960 1071T1122 896T1184 598Q1184 414 1114 276T917 61T620 -16Z" />
<glyph unicode="q" horiz-adv-x="1272" d="M834 -136L838 106L834 194V954L856 978L870 1074L1113 1114V-494H834V-136ZM530 -16Q413 -16 313 42T151 218T89 517Q89 701 159 838T356 1052T652 1128Q754 1128 836 1105T948 1062L834 889Q806 912 760 921T652 930Q575
930 515 887T418 757T381 541Q379 360 442 280T617 199Q686 199 744 223T834 273L871 133Q848 108 806 73T698 11T530 -16Z" />
<glyph unicode="r" horiz-adv-x="853" d="M410 757L396 950Q413 993 461 1034T574 1103T712 1130Q745 1130 771 1127T809 1117V847Q795 855 766 864T674 874Q605 874 554 854T467 807T410 757ZM146 0V1113H387L404 950L426 886V0H146Z" />
<glyph unicode="s" horiz-adv-x="987" d="M97 69L131 269Q146 257 194 237T310 200T450 183Q543 182 588 210T633 292Q633 330 604 358T525 410T412 461Q310 503 240 553T135 668T100 823Q101 925 159 993T315 1094T530 1128Q647 1128 731 1106T844 1066L811 862Q792
878 753 894T662 922T559 933Q461 933 414 908T366 835Q365 772 412 742T538 677Q652 628 734 580T860 469T904 316Q904 153 789 69T478 -16Q395 -16 319 -3T184 29T97 69Z" />
<glyph unicode="t" horiz-adv-x="874" d="M490 -16Q395 -16 331 14T234 115T201 304V918H63V1068Q137 1089 179 1106T241 1171Q250 1194 261 1225T285 1292T312 1368H481V1114H784V918H481V430Q481 324 491 275T528 213T606 199Q633 199 668 205T734 222T784 243L824
86Q795 61 743 38T624 0T490 -16Z" />
<glyph unicode="u" horiz-adv-x="1246" d="M489 -16Q375 -16 306 18T200 116T151 267T138 460V1114H417V459Q417 345 436 290T494 217T596 199Q634 199 675 210T750 236T805 266V1114H1085V-16H920Q878 -16 855 -4T832 57V132L837 98Q795 67 736 41T612 0T489 -16Z" />
<glyph unicode="v" horiz-adv-x="1127" d="M440 -16L9 1114H310L495 545L604 154H543L643 545L822 1114H1118L695 -16H440Z" />
<glyph unicode="w" horiz-adv-x="1659" d="M349 -16L12 1114H289L435 543L521 144H454L542 542L705 1114H968L1130 543L1216 147H1153L1237 539L1380 1114H1648L1302 -16H1052L868 629L803 950H856L787 629L609 -16H349Z" />
<glyph unicode="x" horiz-adv-x="1130" d="M17 0L427 593L432 527L16 1114H328L533 797L608 671H532L596 798L797 1114H1106L687 531V608L1114 0H799L586 331L507 462H593L528 330L332 0H17Z" />
<glyph unicode="y" horiz-adv-x="1132" d="M130 -478V-256Q147 -262 182 -267T238 -273Q283 -273 341 -254T450 -170T528 28L542 0H422L30 1114H328L533 444L625 111H577L658 444L828 1114H1126L764 -31Q700 -231 608 -335T408 -473Q381 -483 339 -489T265 -496Q250
-496 221 -493T164 -486T130 -478Z" />
<glyph unicode="z" horiz-adv-x="1042" d="M92 0L50 81L554 829L612 914H118L119 1114H952L987 1020L489 284L429 199H961V0H92Z" />
<glyph unicode="{" horiz-adv-x="967" d="M325 58V540Q325 573 283 602T183 651T75 676V842Q124 847 182 864T283 908T325 970V1452Q325 1596 373 1653T533 1710Q614 1710 689 1702T827 1686V1538H574V967Q574 937 564 913T534 868Q511 842 472 821T389 781T303
747V769Q344 755 388 736T471 694T535 643Q553 624 563 601T574 548V-32H827V-168Q764 -185 689 -193T533 -202Q421 -202 373 -144T325 58Z" />
<glyph unicode="|" horiz-adv-x="838" d="M301 -183V1738H537V-183H301Z" />
<glyph unicode="}" horiz-adv-x="967" d="M639 58V540Q639 573 681 602T781 651T889 676V842Q840 847 782 864T681 908T639 970V1452Q639 1596 591 1653T431 1710Q350 1710 275 1702T137 1686V1538H390V967Q390 937 400 913T430 868Q453 842 492 821T575 781T661
747V769Q620 755 576 736T493 694T429 643Q411 624 401 601T390 548V-32H137V-168Q200 -185 275 -193T431 -202Q543 -202 591 -144T639 58Z" />
<glyph unicode="~" horiz-adv-x="1408" d="M325 664L200 776Q214 815 258 866T369 955T521 993Q595 993 644 969T732 914T810 859T901 835Q971 835 1017 868T1096 941L1207 816Q1192 770 1149 723T1039 643T887 611Q814 611 767 635T683 690T609 746T515 770Q445
770 402 737T325 664Z" />
<glyph unicode="&#xa0;" horiz-adv-x="358" />
<glyph unicode="&#xa1;" horiz-adv-x="617" d="M417 781L456 -426H145L176 781H417ZM313 1334Q384 1334 432 1284T481 1160Q482 1107 457 1063T389 993T297 966Q217 966 173 1016T128 1139Q127 1192 152 1236T219 1307T313 1334Z" />
<glyph unicode="&#xa2;" horiz-adv-x="1162" d="M585 1042L593 1344H755L749 1042H585ZM554 -210L560 90H722L716 -210H554ZM129 545Q129 709 189 841T371 1050T678 1128Q786 1128 863 1110T968 1073L930 857Q892 881 835 895T696 910Q627 910 563 878T455 774T407
579Q404 450 441 366T545 240T693 199Q771 199 838 216T941 254L986 84Q937 36 842 10T640 -16Q471 -16 358 58T187 258T129 545Z" />
<glyph unicode="&#xa3;" horiz-adv-x="1532" d="M123 98Q123 149 156 187T247 249T380 276Q394 297 400 334T409 415T411 495V1011Q411 1156 469 1266T640 1439T915 1502Q1045 1502 1129 1472T1261 1404L1141 1199Q1107 1230 1051 1257T915 1284Q858 1284 808
1263T726 1174T694 967L695 631Q696 478 678 381T608 234Q662 224 706 209T802 183T926 171Q1051 171 1102 220T1153 339Q1153 391 1130 431T1084 482L1281 579Q1304 566 1336 534T1392 450T1416 327Q1416 163 1307 73T975 -18Q870 -18 790 -2T648 36T540 74T453
88Q423 55 367 25T251 -5Q224 -5 194 6T144 40T123 98ZM238 709V879H1011V709H238Z" />
<glyph unicode="&#xa4;" horiz-adv-x="1508" d="M752 315Q632 315 533 373T374 531T315 754Q315 878 374 977T532 1136T752 1195Q873 1195 972 1136T1131 978T1191 754Q1191 631 1132 532T973 374T752 315ZM754 514Q819 514 871 547T953 634T984 754Q984 820 954
875T871 962T754 995Q689 995 637 963T553 875T522 754Q522 689 553 635T636 547T754 514ZM416 983L200 1202L333 1341L549 1119L416 983ZM1092 979L957 1119L1184 1347L1318 1207L1092 979ZM334 168L199 305L415 525L551 388L334 168ZM1174 170L956 390L1090 529L1308
307L1174 170Z" />
<glyph unicode="&#xa5;" horiz-adv-x="1518" d="M627 0V820L696 613L146 1486H447L699 1044L797 836Q791 836 779 836T756 836T737 836L830 1047L1090 1486H1386L838 625L895 820V0H627ZM265 642V812H1239V642H265ZM265 268V438H1239V268H265Z" />
<glyph unicode="&#xa6;" horiz-adv-x="838" d="M301 -182V610H537V-182H301ZM301 938V1738H537V938H301Z" />
<glyph unicode="&#xa7;" horiz-adv-x="1348" d="M228 1297Q228 1391 269 1456T378 1560T527 1616T688 1634Q827 1634 917 1611T1051 1562L1007 1357Q975 1380 901 1407T700 1433Q644 1432 596 1420T517 1380T487 1304Q487 1255 523 1218T620 1149T751 1085T894
1015T1025 928T1121 814T1158 660Q1158 544 1093 451T928 291L816 344Q835 370 860 417T903 516T922 610Q922 676 885 724T785 809T649 879T501 948T366 1031T266 1142T228 1297ZM1127 159Q1127 62 1084 -4T971 -110T815 -169T647 -188Q510 -188 398 -159T240 -98L284
108Q322 80 414 47T636 14Q698 14 751 27T836 69T869 148Q869 200 820 237T695 305T532 372T369 455T243 572T194 744Q194 853 259 943T419 1094L542 1036Q523 1010 498 969T454 882T435 794Q435 731 472 688T571 613T707 553T855 492T990 417T1089 311T1127 159Z"
/>
<glyph unicode="&#xa8;" horiz-adv-x="918" d="M214 1295Q147 1295 104 1337T60 1448Q60 1518 113 1568T234 1619Q309 1619 347 1575T385 1465Q385 1393 335 1344T214 1295ZM685 1295Q620 1295 576 1337T532 1448Q532 1518 584 1568T707 1619Q781 1619 819 1575T858
1465Q858 1393 808 1344T685 1295Z" />
<glyph unicode="&#xa9;" horiz-adv-x="2062" d="M181 940Q181 1119 246 1274T427 1546T698 1729T1031 1795Q1209 1795 1363 1729T1633 1546T1815 1274T1881 940Q1881 762 1816 606T1634 332T1363 148T1031 81Q853 81 699 147T428 332T246 606T181 940ZM319 940Q319
789 372 656T521 422T747 264T1031 207Q1184 207 1313 264T1539 422T1688 656T1741 940Q1741 1092 1688 1224T1539 1458T1314 1616T1031 1673Q877 1673 747 1616T521 1458T372 1225T319 940ZM596 933Q596 1071 651 1180T814 1354T1080 1418Q1168 1418 1230 1399T1320
1365L1286 1185Q1250 1209 1194 1225T1071 1242Q950 1242 881 1162T811 958Q811 797 883 720T1068 643Q1146 643 1205 663T1299 703L1343 561Q1297 521 1213 493T1031 464Q897 464 799 529T649 702T596 933Z" />
<glyph unicode="&#xaa;" horiz-adv-x="1030" d="M411 655Q278 655 198 723T118 913Q118 1012 169 1074T301 1167Q357 1188 417 1200T539 1217T657 1222L699 1152L657 1089Q592 1089 533 1084T426 1055Q384 1033 367 1003T350 930Q350 878 388 851T480 824Q544
824 593 844T657 876L699 810L668 749Q638 717 568 686T411 655ZM895 663H783Q728 663 698 670T668 736V799H657V1271Q657 1355 615 1377T481 1399Q437 1399 379 1387T270 1357T199 1323L143 1465Q161 1482 223 1508T368 1554T527 1574Q704 1574 799 1509T895 1276V1140V663Z"
/>
<glyph unicode="&#xab;" horiz-adv-x="1932" d="M230 486V710L846 1124L914 927L434 550V650L914 277L846 81L230 486ZM981 486V710L1618 1124L1686 927L1186 550V650L1686 277L1618 81L981 486Z" />
<glyph unicode="&#xac;" horiz-adv-x="1440" d="M236 635V832H1204V307H977V635H236Z" />
<glyph unicode="&#xad;" horiz-adv-x="1190" d="M180 545V763H1010V545H180Z" />
<glyph unicode="&#xae;" horiz-adv-x="2062" d="M178 940Q178 1119 244 1274T426 1546T698 1729T1031 1795Q1209 1795 1363 1729T1635 1546T1817 1274T1883 940Q1883 762 1818 606T1635 332T1364 148T1031 81Q853 81 698 147T427 332T244 606T178 940ZM317 940Q317
789 371 656T521 422T748 264T1031 207Q1183 207 1313 264T1539 422T1689 656T1743 940Q1743 1092 1690 1224T1540 1457T1313 1615T1031 1672Q878 1672 748 1615T522 1457T371 1224T317 940ZM703 470V1411Q725 1411 745 1411T787 1411Q825 1411 863 1412T944 1415T1042
1416Q1223 1416 1309 1339T1395 1148Q1395 1042 1354 960T1207 847Q1248 821 1276 779T1327 690T1375 598Q1389 572 1406 547T1458 471H1235Q1215 495 1202 522T1172 582Q1152 624 1130 674T1078 765T1003 823Q993 822 976 822T937 821T898 821V470H703ZM898 965Q912
962 934 961T980 960T1019 960Q1107 960 1151 998T1196 1123Q1196 1194 1155 1235T1000 1273Q971 1272 948 1271T898 1262V965Z" />
<glyph unicode="&#xaf;" horiz-adv-x="666" d="M50 1384V1575H616V1384H50Z" />
<glyph unicode="&#xb0;" horiz-adv-x="919" d="M107 1248Q107 1349 153 1428T280 1552T460 1598Q559 1598 639 1552T766 1427T813 1248Q813 1147 767 1068T641 943T460 897Q362 897 282 943T155 1069T107 1248ZM292 1248Q292 1171 341 1122T460 1073Q530 1073
578 1122T627 1248Q627 1325 578 1374T460 1423Q390 1423 341 1375T292 1248Z" />
<glyph unicode="&#xb1;" horiz-adv-x="1364" d="M237 0V191H1121V0H237ZM571 262V473L579 655L419 649H207V863H419L579 855L571 1037V1248H791V1037L784 855L928 863H1157V649H928L784 655L791 473V262H571Z" />
<glyph unicode="&#xb2;" horiz-adv-x="1012" d="M115 800L80 898Q138 927 210 977T356 1092T491 1233T591 1390T629 1551Q629 1632 580 1675T429 1719Q354 1719 280 1687T166 1619L88 1760Q121 1793 181 1827T320 1885T491 1909Q635 1909 719 1859T839 1730T875
1562Q875 1446 815 1346T651 1157T417 984L912 999V800H115Z" />
<glyph unicode="&#xb3;" horiz-adv-x="884" d="M97 823L96 974Q134 967 178 961T257 955Q352 955 424 975T537 1036T577 1134Q577 1174 557 1211T489 1270T357 1288L248 1261L217 1406Q270 1418 319 1433T400 1464Q460 1494 493 1530T529 1615Q531 1672 482 1701T361
1730Q274 1730 218 1704T126 1654L58 1803Q79 1826 132 1851T255 1894T400 1912Q524 1912 606 1880T728 1788T769 1650Q769 1541 697 1468T523 1358V1377Q631 1379 697 1341T795 1244T826 1124Q826 1027 766 950T594 829T325 784Q238 784 180 800T97 823Z" />
<glyph unicode="&#xb4;" horiz-adv-x="627" d="M181 1238L44 1357Q96 1411 154 1477T270 1616T375 1760L566 1604Q546 1562 495 1505T382 1392T265 1294T181 1238Z" />
<glyph unicode="&#xb5;" horiz-adv-x="1350" d="M180 -362V1114H459V433Q459 305 510 252T668 198Q699 198 732 208T797 235T851 269V1114H1131V263Q1131 218 1143 204T1171 189Q1180 189 1201 194T1249 215L1279 84Q1273 74 1241 50T1158 4T1042 -18Q980 -18
940 13T899 118Q878 90 846 59T765 6T644 -16Q536 -16 466 19T355 148L401 158L437 -362H180Z" />
<glyph unicode="&#xb6;" horiz-adv-x="1418" d="M563 0V758Q432 758 337 805T191 954T140 1218Q140 1429 283 1549T716 1670Q759 1670 824 1668T963 1662T1107 1656T1228 1652V0H1004V1490H787V0H563Z" />
<glyph unicode="&#xb7;" horiz-adv-x="617" d="M301 554Q230 554 182 604T132 728Q131 781 156 825T224 895T316 922Q396 922 440 872T485 749Q486 696 461 652T394 581T301 554Z" />
<glyph unicode="&#xb8;" horiz-adv-x="494" d="M38 -426L56 -271Q69 -278 89 -280T133 -283Q180 -283 214 -248T252 -137Q259 -72 250 -34T226 30L341 34L387 30Q410 9 424 -31T443 -120T447 -218Q440 -342 368 -398T201 -454Q173 -454 140 -451T78 -441T38 -426Z" />
<glyph unicode="&#xb9;" horiz-adv-x="775" d="M334 800V1627Q299 1609 262 1599T184 1582T93 1574L60 1708Q159 1725 231 1763T353 1843T435 1917L438 1916L575 1879V800H334Z" />
<glyph unicode="&#xba;" horiz-adv-x="1028" d="M88 1128Q90 1250 130 1335T234 1474T375 1551T531 1576Q664 1576 754 1517T891 1352T935 1108Q933 945 871 846T712 701T509 656Q305 656 196 785T88 1128ZM334 1128Q334 992 382 912T519 832Q604 834 647 897T690
1106Q690 1243 647 1322T519 1400Q437 1399 386 1337T334 1128Z" />
<glyph unicode="&#xbb;" horiz-adv-x="1949" d="M1715 487L1089 81L1022 276L1512 650V550L1022 926L1089 1124L1715 710V487ZM936 487L310 81L242 276L732 650V550L242 926L310 1124L936 710V487Z" />
<glyph unicode="&#xbc;" horiz-adv-x="2198" d="M334 780V1607Q299 1589 262 1579T184 1562T93 1554L60 1688Q159 1705 231 1743T353 1823T435 1897L438 1896L575 1859V780H334ZM1403 1916H1599L621 -102H425L1403 1916ZM1245 236L1189 330Q1220 390 1259 466T1342
628T1429 799T1510 966T1578 1114H1863Q1792 995 1729 889T1610 685T1500 499L1442 407H2146V236H1245ZM1744 0V456L1771 730H1967V0H1744Z" />
<glyph unicode="&#xbd;" horiz-adv-x="2309" d="M334 780V1607Q299 1589 262 1579T184 1562T93 1554L60 1688Q159 1705 231 1743T353 1823T435 1897L438 1896L575 1859V780H334ZM1403 1916H1599L621 -102H425L1403 1916ZM1411 0L1376 98Q1434 127 1506 177T1652
292T1787 433T1887 590T1925 751Q1925 832 1876 875T1725 919Q1650 919 1576 887T1462 819L1384 960Q1417 993 1477 1027T1616 1085T1787 1109Q1931 1109 2015 1059T2135 930T2171 762Q2171 646 2111 546T1947 357T1713 184L2208 199V0H1411Z" />
<glyph unicode="&#xbe;" horiz-adv-x="2346" d="M97 803L96 954Q134 947 178 941T257 935Q352 935 424 955T537 1016T577 1114Q577 1154 557 1191T489 1250T357 1268L248 1241L217 1386Q270 1398 319 1413T400 1444Q460 1474 493 1510T529 1595Q531 1652 482 1681T361
1710Q274 1710 218 1684T126 1634L58 1783Q79 1806 132 1831T255 1874T400 1892Q524 1892 606 1860T728 1768T769 1630Q769 1521 697 1448T523 1338V1357Q631 1359 697 1321T795 1224T826 1104Q826 1007 766 930T594 809T325 764Q238 764 180 780T97 803ZM1552
1916H1748L770 -102H574L1552 1916ZM1394 236L1338 330Q1369 390 1408 466T1491 628T1578 799T1659 966T1727 1114H2012Q1941 995 1878 889T1759 685T1649 499L1591 407H2295V236H1394ZM1893 0V456L1920 730H2116V0H1893Z" />
<glyph unicode="&#xbf;" horiz-adv-x="1066" d="M715 990Q744 950 768 885T795 729Q797 652 760 596T666 495T551 408T452 319T406 209Q381 68 469 -10T742 -88Q820 -88 869 -77T941 -58V-261Q925 -272 885 -284T792 -303T683 -311Q520 -311 407 -271T225 -162T130
-2T114 188Q121 272 153 332T233 436T331 517T429 590T505 668T540 769Q545 826 532 875T501 990H715ZM587 1510Q654 1510 701 1462T750 1342Q751 1293 726 1251T660 1184T570 1158Q494 1158 451 1206T407 1323Q406 1374 430 1416T496 1484T587 1510Z" />
<glyph unicode="&#xc0;" horiz-adv-x="1395" d="M304 0H2L548 1500H851L1394 0H1086L743 1073L698 1236L652 1073L304 0ZM299 332L339 538H1021L1063 332H299ZM832 1719L706 1611Q673 1623 623 1655T519 1730T417 1818T340 1901L534 2030Q538 2018 567 1984T638
1908T722 1825T794 1755T832 1719Z" />
<glyph unicode="&#xc1;" horiz-adv-x="1395" d="M304 0H2L548 1500H851L1394 0H1086L743 1073L698 1236L652 1073L304 0ZM299 332L339 538H1021L1063 332H299ZM652 1611L526 1717Q532 1723 563 1753T637 1824T722 1907T794 1983T828 2028L1019 1899Q986 1860 940
1816T842 1729T741 1656T652 1611Z" />
<glyph unicode="&#xc2;" horiz-adv-x="1395" d="M304 0H2L548 1500H851L1394 0H1086L743 1073L698 1236L652 1073L304 0ZM299 332L339 538H1021L1063 332H299ZM478 1599L327 1679L591 1976H801L1067 1681L912 1599L695 1792L478 1599Z" />
<glyph unicode="&#xc3;" horiz-adv-x="1395" d="M304 0H2L548 1500H851L1394 0H1086L743 1073L698 1236L652 1073L304 0ZM299 332L339 538H1021L1063 332H299ZM847 1621Q789 1621 750 1641T679 1689T619 1736T553 1757Q514 1757 488 1746T444 1713T413 1660L302
1706Q313 1771 345 1825T428 1912T545 1945Q601 1945 641 1925T712 1877T773 1830T839 1809Q872 1809 898 1819T944 1852T976 1906L1090 1856Q1082 1789 1048 1736T961 1652T847 1621Z" />
<glyph unicode="&#xc4;" horiz-adv-x="1395" d="M304 0H2L548 1500H851L1394 0H1086L743 1073L698 1236L652 1073L304 0ZM299 332L339 538H1021L1063 332H299ZM436 1621Q370 1621 326 1662T282 1770Q282 1841 334 1889T455 1938Q531 1938 569 1896T608 1789Q608
1716 558 1669T436 1621ZM939 1621Q873 1621 830 1662T786 1770Q786 1841 838 1889T959 1938Q1034 1938 1073 1896T1112 1789Q1112 1716 1062 1669T939 1621Z" />
<glyph unicode="&#xc5;" horiz-adv-x="1395" d="M304 0H2L548 1500H851L1394 0H1086L743 1073L698 1236L652 1073L304 0ZM299 332L339 538H1021L1063 332H299ZM692 1471Q540 1471 452 1544T365 1750Q366 1848 415 1906T541 1989T699 2014Q851 2014 940 1947T1029
1746Q1028 1647 981 1587T857 1499T692 1471ZM694 1613Q767 1613 812 1639T857 1744Q857 1811 811 1843T694 1875Q635 1877 587 1852T538 1748Q538 1685 581 1650T694 1613Z" />
<glyph unicode="&#xc6;" horiz-adv-x="1866" d="M-92 0L618 1486L849 1373L219 0H-92ZM831 1486L899 1344H655L618 1486H831ZM249 350L292 554H971L998 350H249ZM831 0V1486H1721V1269H1116V872H1569V657H1116V222H1787V0H831Z" />
<glyph unicode="&#xc7;" horiz-adv-x="1283" d="M90 738Q90 925 146 1067T302 1306T532 1453T809 1502Q918 1502 992 1491T1115 1466T1200 1444L1161 1193Q1143 1205 1105 1224T999 1258T830 1274Q697 1274 596 1212T438 1034T381 755Q381 594 435 471T591 277T839
207Q909 207 979 222T1104 258T1186 301V62Q1145 45 1093 27T974 -3T816 -16Q590 -16 428 78T178 341T90 738ZM463 -426L480 -271Q494 -278 514 -280T558 -283Q613 -283 647 -248T683 -137Q685 -74 675 -35T651 30L766 34L813 30Q834 9 847 -29T866 -115T872 -211Q871
-295 836 -349T745 -428T627 -454Q599 -454 565 -451T503 -441T463 -426Z" />
<glyph unicode="&#xc8;" horiz-adv-x="1201" d="M170 0V1486H1063V1269H457V869H913V656H457V222H1128V0H170ZM767 1719L641 1611Q608 1623 558 1655T454 1730T352 1818T275 1901L469 2030Q473 2018 502 1984T573 1908T657 1825T729 1755T767 1719Z" />
<glyph unicode="&#xc9;" horiz-adv-x="1201" d="M170 0V1486H1063V1269H457V869H913V656H457V222H1128V0H170ZM587 1611L461 1717Q467 1723 498 1753T572 1824T657 1907T729 1983T763 2028L954 1899Q921 1860 875 1816T777 1729T676 1656T587 1611Z" />
<glyph unicode="&#xca;" horiz-adv-x="1201" d="M170 0V1486H1063V1269H457V869H913V656H457V222H1128V0H170ZM413 1599L262 1679L526 1976H736L1002 1681L847 1599L630 1792L413 1599Z" />
<glyph unicode="&#xcb;" horiz-adv-x="1201" d="M170 0V1486H1063V1269H457V869H913V656H457V222H1128V0H170ZM371 1621Q305 1621 261 1662T217 1770Q217 1841 269 1889T390 1938Q466 1938 504 1896T543 1789Q543 1716 493 1669T371 1621ZM874 1621Q808 1621 765
1662T721 1770Q721 1841 773 1889T894 1938Q969 1938 1008 1896T1047 1789Q1047 1716 997 1669T874 1621Z" />
<glyph unicode="&#xcc;" horiz-adv-x="676" d="M193 0V1486H482V0H193ZM475 1719L349 1611Q316 1623 266 1655T162 1730T60 1818T-17 1901L177 2030Q181 2018 210 1984T281 1908T365 1825T437 1755T475 1719Z" />
<glyph unicode="&#xcd;" horiz-adv-x="676" d="M193 0V1486H482V0H193ZM295 1611L169 1717Q175 1723 206 1753T280 1824T365 1907T437 1983T471 2028L662 1899Q629 1860 583 1816T485 1729T384 1656T295 1611Z" />
<glyph unicode="&#xce;" horiz-adv-x="676" d="M193 0V1486H482V0H193ZM121 1599L-30 1679L234 1976H444L710 1681L555 1599L338 1792L121 1599Z" />
<glyph unicode="&#xcf;" horiz-adv-x="676" d="M193 0V1486H482V0H193ZM79 1621Q13 1621 -31 1662T-75 1770Q-75 1841 -23 1889T98 1938Q174 1938 212 1896T251 1789Q251 1716 201 1669T79 1621ZM582 1621Q516 1621 473 1662T429 1770Q429 1841 481 1889T602 1938Q677
1938 716 1896T755 1789Q755 1716 705 1669T582 1621Z" />
<glyph unicode="&#xd0;" horiz-adv-x="1479" d="M62 684V868H810V684H62ZM170 0V1486Q191 1486 212 1486T253 1486T294 1486Q337 1486 399 1490T531 1498T668 1502Q1036 1502 1211 1314T1386 784Q1386 530 1297 350T1041 76T645 -16Q554 -14 457 -7T280 0Q261
0 243 0T207 0T170 0ZM458 214Q499 205 558 201T674 197Q796 199 889 256T1034 435T1086 750Q1086 952 1036 1071T886 1242T634 1294Q584 1294 536 1290T458 1280V214Z" />
<glyph unicode="&#xd1;" horiz-adv-x="1534" d="M170 0V1486H435L1014 579L1208 198H1139L1100 669V1486H1364V0H1083L529 877L304 1309H388L431 798V0H170ZM927 1621Q869 1621 830 1641T759 1689T699 1736T633 1757Q594 1757 568 1746T524 1713T493 1660L382
1706Q393 1771 425 1825T508 1912T625 1945Q681 1945 721 1925T792 1877T853 1830T919 1809Q952 1809 978 1819T1024 1852T1056 1906L1170 1856Q1162 1789 1128 1736T1041 1652T927 1621Z" />
<glyph unicode="&#xd2;" horiz-adv-x="1537" d="M763 -16Q551 -20 399 76T166 348T90 752Q95 1007 188 1172T438 1418T793 1502Q995 1505 1144 1412T1372 1148T1447 745Q1442 490 1353 323T1112 72T763 -16ZM769 197Q947 197 1051 334T1155 755Q1155 903 1114
1024T991 1216T785 1287Q676 1287 584 1232T437 1056T382 740Q382 591 425 468T555 271T769 197ZM924 1719L798 1611Q765 1623 715 1655T611 1730T509 1818T432 1901L626 2030Q630 2018 659 1984T730 1908T814 1825T886 1755T924 1719Z" />
<glyph unicode="&#xd3;" horiz-adv-x="1537" d="M763 -16Q551 -20 399 76T166 348T90 752Q95 1007 188 1172T438 1418T793 1502Q995 1505 1144 1412T1372 1148T1447 745Q1442 490 1353 323T1112 72T763 -16ZM769 197Q947 197 1051 334T1155 755Q1155 903 1114
1024T991 1216T785 1287Q676 1287 584 1232T437 1056T382 740Q382 591 425 468T555 271T769 197ZM744 1611L618 1717Q624 1723 655 1753T729 1824T814 1907T886 1983T920 2028L1111 1899Q1078 1860 1032 1816T934 1729T833 1656T744 1611Z" />
<glyph unicode="&#xd4;" horiz-adv-x="1537" d="M763 -16Q551 -20 399 76T166 348T90 752Q95 1007 188 1172T438 1418T793 1502Q995 1505 1144 1412T1372 1148T1447 745Q1442 490 1353 323T1112 72T763 -16ZM769 197Q947 197 1051 334T1155 755Q1155 903 1114
1024T991 1216T785 1287Q676 1287 584 1232T437 1056T382 740Q382 591 425 468T555 271T769 197ZM570 1599L419 1679L683 1976H893L1159 1681L1004 1599L787 1792L570 1599Z" />
<glyph unicode="&#xd5;" horiz-adv-x="1537" d="M763 -16Q551 -20 399 76T166 348T90 752Q95 1007 188 1172T438 1418T793 1502Q995 1505 1144 1412T1372 1148T1447 745Q1442 490 1353 323T1112 72T763 -16ZM769 197Q947 197 1051 334T1155 755Q1155 903 1114
1024T991 1216T785 1287Q676 1287 584 1232T437 1056T382 740Q382 591 425 468T555 271T769 197ZM939 1621Q881 1621 842 1641T771 1689T711 1736T645 1757Q606 1757 580 1746T536 1713T505 1660L394 1706Q405 1771 437 1825T520 1912T637 1945Q693 1945 733 1925T804
1877T865 1830T931 1809Q964 1809 990 1819T1036 1852T1068 1906L1182 1856Q1174 1789 1140 1736T1053 1652T939 1621Z" />
<glyph unicode="&#xd6;" horiz-adv-x="1537" d="M763 -16Q551 -20 399 76T166 348T90 752Q95 1007 188 1172T438 1418T793 1502Q995 1505 1144 1412T1372 1148T1447 745Q1442 490 1353 323T1112 72T763 -16ZM769 197Q947 197 1051 334T1155 755Q1155 903 1114
1024T991 1216T785 1287Q676 1287 584 1232T437 1056T382 740Q382 591 425 468T555 271T769 197ZM528 1621Q462 1621 418 1662T374 1770Q374 1841 426 1889T547 1938Q623 1938 661 1896T700 1789Q700 1716 650 1669T528 1621ZM1031 1621Q965 1621 922 1662T878
1770Q878 1841 930 1889T1051 1938Q1126 1938 1165 1896T1204 1789Q1204 1716 1154 1669T1031 1621Z" />
<glyph unicode="&#xd7;" horiz-adv-x="1351" d="M190 407L537 756L190 1116L343 1265L677 900L1010 1265L1163 1116L816 758L1163 407L1010 257L676 610L343 257L190 407Z" />
<glyph unicode="&#xd8;" horiz-adv-x="1548" d="M359 -210L237 -179L1194 1729L1314 1697L359 -210ZM768 -16Q556 -20 404 76T171 348T95 752Q100 1007 193 1172T443 1418T797 1502Q1001 1505 1149 1412T1377 1148T1452 745Q1447 489 1358 322T1117 72T768 -16ZM774
198Q951 198 1055 335T1159 755Q1159 903 1119 1023T996 1214T790 1285Q681 1285 590 1230T443 1055T388 740Q388 592 431 469T560 272T774 198Z" />
<glyph unicode="&#xd9;" horiz-adv-x="1464" d="M740 -16Q524 -16 393 61T204 282T146 623L148 1486H433L431 667Q430 485 466 386T571 249T742 210Q836 210 901 249T1001 387T1036 667V1486H1319V618Q1319 315 1178 150T740 -16ZM875 1719L749 1611Q716 1623
666 1655T562 1730T460 1818T383 1901L577 2030Q581 2018 610 1984T681 1908T765 1825T837 1755T875 1719Z" />
<glyph unicode="&#xda;" horiz-adv-x="1464" d="M740 -16Q524 -16 393 61T204 282T146 623L148 1486H433L431 667Q430 485 466 386T571 249T742 210Q836 210 901 249T1001 387T1036 667V1486H1319V618Q1319 315 1178 150T740 -16ZM695 1611L569 1717Q575 1723
606 1753T680 1824T765 1907T837 1983T871 2028L1062 1899Q1029 1860 983 1816T885 1729T784 1656T695 1611Z" />
<glyph unicode="&#xdb;" horiz-adv-x="1464" d="M740 -16Q524 -16 393 61T204 282T146 623L148 1486H433L431 667Q430 485 466 386T571 249T742 210Q836 210 901 249T1001 387T1036 667V1486H1319V618Q1319 315 1178 150T740 -16ZM521 1599L370 1679L634 1976H844L1110
1681L955 1599L738 1792L521 1599Z" />
<glyph unicode="&#xdc;" horiz-adv-x="1464" d="M740 -16Q524 -16 393 61T204 282T146 623L148 1486H433L431 667Q430 485 466 386T571 249T742 210Q836 210 901 249T1001 387T1036 667V1486H1319V618Q1319 315 1178 150T740 -16ZM479 1621Q413 1621 369 1662T325
1770Q325 1841 377 1889T498 1938Q574 1938 612 1896T651 1789Q651 1716 601 1669T479 1621ZM982 1621Q916 1621 873 1662T829 1770Q829 1841 881 1889T1002 1938Q1077 1938 1116 1896T1155 1789Q1155 1716 1105 1669T982 1621Z" />
<glyph unicode="&#xdd;" horiz-adv-x="1241" d="M476 0V617L510 487L-14 1486H297L579 912L652 728H610L672 912L952 1486H1255L733 486L768 615V0H476ZM586 1611L460 1717Q466 1723 497 1753T571 1824T656 1907T728 1983T762 2028L953 1899Q920 1860 874 1816T776
1729T675 1656T586 1611Z" />
<glyph unicode="&#xde;" horiz-adv-x="1281" d="M651 257Q577 257 525 261T444 266V475Q488 466 528 465T605 463Q691 463 764 487T883 578T928 773Q928 910 847 977T603 1039Q561 1038 521 1034T443 1018L393 1232Q456 1234 533 1240T690 1247Q939 1247 1075
1131T1211 780Q1211 534 1068 396T651 257ZM170 0V1486H458V0H170Z" />
<glyph unicode="&#xdf;" horiz-adv-x="1319" d="M181 0V951Q181 1161 258 1291T467 1482T759 1542Q880 1542 971 1507T1114 1408T1165 1257Q1165 1190 1143 1142T1087 1059T1020 994T964 934T941 866Q941 817 975 778T1059 699T1159 610T1243 494T1277 330Q1277
230 1242 163T1149 57T1018 1T869 -16Q792 -16 729 -6T638 18V219Q660 208 710 191T831 174Q867 174 903 186T964 229T989 313Q988 374 958 418T884 502T795 585T720 686T690 827Q690 895 719 942T788 1027T856 1110T886 1219Q886 1284 843 1320T718 1356Q642 1356
585 1317T495 1185T462 928V0H181ZM46 918V1085L208 1122L239 1015L186 918H46Z" />
<glyph unicode="&#xe0;" horiz-adv-x="1162" d="M440 -16Q336 -16 257 26T134 143T89 320Q89 423 145 497T296 611Q362 639 438 654T591 675T734 681L784 619L734 527Q697 526 649 521T556 506T479 481Q436 462 405 430T373 336Q373 254 418 214T542 173Q582 173
622 184T693 211T734 238L785 180L749 94Q704 54 624 19T440 -16ZM1014 0H749V166H734V771Q734 860 687 888T552 916Q489 916 421 905T294 875T197 836L135 1020Q165 1038 235 1064T396 1111T579 1131Q723 1131 820 1098T965 981T1014 746V0ZM673 1378L563 1265Q532
1280 477 1321T362 1418T250 1531T173 1636L342 1788Q385 1723 442 1650T559 1505T673 1378Z" />
<glyph unicode="&#xe1;" horiz-adv-x="1162" d="M440 -16Q336 -16 257 26T134 143T89 320Q89 423 145 497T296 611Q362 639 438 654T591 675T734 681L784 619L734 527Q697 526 649 521T556 506T479 481Q436 462 405 430T373 336Q373 254 418 214T542 173Q582 173
622 184T693 211T734 238L785 180L749 94Q704 54 624 19T440 -16ZM1014 0H749V166H734V771Q734 860 687 888T552 916Q489 916 421 905T294 875T197 836L135 1020Q165 1038 235 1064T396 1111T579 1131Q723 1131 820 1098T965 981T1014 746V0ZM509 1265L382 1376Q434
1431 492 1499T606 1643T709 1790L892 1643Q876 1610 840 1565T757 1472T662 1381T573 1306T509 1265Z" />
<glyph unicode="&#xe2;" horiz-adv-x="1162" d="M440 -16Q336 -16 257 26T134 143T89 320Q89 423 145 497T296 611Q362 639 438 654T591 675T734 681L784 619L734 527Q697 526 649 521T556 506T479 481Q436 462 405 430T373 336Q373 254 418 214T542 173Q582 173
622 184T693 211T734 238L785 180L749 94Q704 54 624 19T440 -16ZM1014 0H749V166H734V771Q734 860 687 888T552 916Q489 916 421 905T294 875T197 836L135 1020Q165 1038 235 1064T396 1111T579 1131Q723 1131 820 1098T965 981T1014 746V0ZM317 1238L184 1313L471
1662H666L946 1313L806 1238L565 1451L317 1238Z" />
<glyph unicode="&#xe3;" horiz-adv-x="1162" d="M440 -16Q336 -16 257 26T134 143T89 320Q89 423 145 497T296 611Q362 639 438 654T591 675T734 681L784 619L734 527Q697 526 649 521T556 506T479 481Q436 462 405 430T373 336Q373 254 418 214T542 173Q582 173
622 184T693 211T734 238L785 180L749 94Q704 54 624 19T440 -16ZM1014 0H749V166H734V771Q734 860 687 888T552 916Q489 916 421 905T294 875T197 836L135 1020Q165 1038 235 1064T396 1111T579 1131Q723 1131 820 1098T965 981T1014 746V0ZM699 1284Q645 1284
608 1305T542 1355T486 1404T424 1425Q387 1425 363 1414T322 1382T292 1329L185 1375Q196 1439 229 1493T312 1581T428 1615Q482 1615 519 1594T584 1545T640 1495T702 1474Q734 1474 758 1484T801 1516T832 1570L941 1520Q934 1453 899 1400T812 1315T699 1284Z"
/>
<glyph unicode="&#xe4;" horiz-adv-x="1162" d="M440 -16Q336 -16 257 26T134 143T89 320Q89 423 145 497T296 611Q362 639 438 654T591 675T734 681L784 619L734 527Q697 526 649 521T556 506T479 481Q436 462 405 430T373 336Q373 254 418 214T542 173Q582 173
622 184T693 211T734 238L785 180L749 94Q704 54 624 19T440 -16ZM1014 0H749V166H734V771Q734 860 687 888T552 916Q489 916 421 905T294 875T197 836L135 1020Q165 1038 235 1064T396 1111T579 1131Q723 1131 820 1098T965 981T1014 746V0ZM321 1291Q254 1291
211 1333T167 1444Q167 1514 220 1564T341 1614Q416 1614 454 1570T492 1461Q492 1388 442 1340T321 1291ZM792 1291Q727 1291 683 1333T639 1444Q639 1514 692 1564T813 1614Q888 1614 926 1570T964 1461Q964 1388 914 1340T792 1291Z" />
<glyph unicode="&#xe5;" horiz-adv-x="1162" d="M440 -16Q336 -16 257 26T134 143T89 320Q89 423 145 497T296 611Q362 639 438 654T591 675T734 681L784 619L734 527Q697 526 649 521T556 506T479 481Q436 462 405 430T373 336Q373 254 418 214T542 173Q582 173
622 184T693 211T734 238L785 180L749 94Q704 54 624 19T440 -16ZM1014 0H749V166H734V771Q734 860 687 888T552 916Q489 916 421 905T294 875T197 836L135 1020Q165 1038 235 1064T396 1111T579 1131Q723 1131 820 1098T965 981T1014 746V0ZM561 1283Q409 1283
321 1361T233 1571Q235 1669 284 1729T410 1816T567 1843Q718 1843 808 1772T897 1567Q896 1469 849 1407T725 1314T561 1283ZM563 1425Q635 1424 679 1455T723 1565Q723 1632 678 1668T563 1705Q523 1705 488 1693T430 1652T407 1570Q407 1507 449 1467T563 1425Z"
/>
<glyph unicode="&#xe6;" horiz-adv-x="1782" d="M1254 -16Q1004 -16 869 133T734 560Q734 722 794 850T972 1052T1257 1128Q1343 1129 1420 1106T1558 1030T1653 895T1692 694Q1692 633 1690 582T1680 494H889L908 652H1432Q1437 733 1423 798T1368 901T1248 939Q1176
939 1121 899T1037 763T1012 499Q1016 382 1056 315T1165 220T1323 191Q1367 191 1423 199T1531 220T1611 250L1657 93Q1621 63 1557 38T1414 -1T1254 -16ZM92 311Q92 416 150 492T303 610Q399 651 515 666T734 681L783 619L738 527Q665 527 597 515T483 481Q439
462 407 430T375 332Q375 252 419 213T541 173Q588 173 637 189T728 232T789 294L845 251L870 180Q790 76 679 30T446 -16Q346 -16 266 22T139 134T92 311ZM206 843L142 1020Q164 1032 231 1059T395 1108T597 1131Q727 1131 812 1099T939 982T982 739V582L734 581V767Q734
832 712 866T643 912T525 925Q470 925 406 912T287 879T206 843Z" />
<glyph unicode="&#xe7;" horiz-adv-x="988" d="M75 545Q75 709 135 841T317 1050T625 1128Q733 1128 810 1110T914 1073L876 857Q838 881 782 895T642 910Q574 910 509 878T401 774T353 579Q350 450 388 366T492 240T639 199Q718 199 784 216T887 254L932 84Q883
36 788 10T586 -16Q418 -16 305 58T133 258T75 545ZM202 -426L219 -271Q233 -278 253 -280T297 -283Q352 -283 386 -248T422 -137Q424 -74 414 -35T390 30L505 34L552 30Q573 9 586 -29T605 -115T611 -211Q610 -295 575 -349T484 -428T366 -454Q338 -454 304 -451T242
-441T202 -426Z" />
<glyph unicode="&#xe8;" horiz-adv-x="1145" d="M613 -16Q362 -16 228 136T93 560Q93 722 153 850T331 1052T617 1128Q703 1129 780 1105T918 1030T1015 895T1053 695Q1053 633 1051 582T1042 493H246L266 652H791Q796 732 783 797T727 900T607 938Q534 938 479
898T395 762T370 499Q374 384 415 316T524 219T682 189Q726 189 782 197T890 219T969 248L1017 93Q980 63 916 38T773 -1T613 -16ZM719 1379L609 1266Q578 1281 523 1322T408 1419T296 1532T219 1637L388 1789Q431 1724 488 1651T605 1506T719 1379Z" />
<glyph unicode="&#xe9;" horiz-adv-x="1145" d="M613 -16Q362 -16 228 136T93 560Q93 722 153 850T331 1052T617 1128Q703 1129 780 1105T918 1030T1015 895T1053 695Q1053 633 1051 582T1042 493H246L266 652H791Q796 732 783 797T727 900T607 938Q534 938 479
898T395 762T370 499Q374 384 415 316T524 219T682 189Q726 189 782 197T890 219T969 248L1017 93Q980 63 916 38T773 -1T613 -16ZM555 1266L428 1377Q480 1432 538 1500T652 1644T755 1791L938 1644Q922 1611 886 1566T803 1473T708 1382T619 1307T555 1266Z"
/>
<glyph unicode="&#xea;" horiz-adv-x="1145" d="M613 -16Q362 -16 228 136T93 560Q93 722 153 850T331 1052T617 1128Q703 1129 780 1105T918 1030T1015 895T1053 695Q1053 633 1051 582T1042 493H246L266 652H791Q796 732 783 797T727 900T607 938Q534 938 479
898T395 762T370 499Q374 384 415 316T524 219T682 189Q726 189 782 197T890 219T969 248L1017 93Q980 63 916 38T773 -1T613 -16ZM363 1239L230 1314L517 1663H712L992 1314L852 1239L611 1452L363 1239Z" />
<glyph unicode="&#xeb;" horiz-adv-x="1145" d="M613 -16Q362 -16 228 136T93 560Q93 722 153 850T331 1052T617 1128Q703 1129 780 1105T918 1030T1015 895T1053 695Q1053 633 1051 582T1042 493H246L266 652H791Q796 732 783 797T727 900T607 938Q534 938 479
898T395 762T370 499Q374 384 415 316T524 219T682 189Q726 189 782 197T890 219T969 248L1017 93Q980 63 916 38T773 -1T613 -16ZM367 1292Q300 1292 257 1334T213 1445Q213 1515 266 1565T387 1615Q462 1615 500 1571T538 1462Q538 1389 488 1341T367 1292ZM838
1292Q773 1292 729 1334T685 1445Q685 1515 738 1565T859 1615Q934 1615 972 1571T1010 1462Q1010 1389 960 1341T838 1292Z" />
<glyph unicode="&#xec;" horiz-adv-x="616" d="M168 0V1113H448V0H168ZM415 1378L305 1265Q274 1280 219 1321T104 1418T-8 1531T-85 1636L84 1788Q127 1723 184 1650T301 1505T415 1378Z" />
<glyph unicode="&#xed;" horiz-adv-x="616" d="M168 0V1113H448V0H168ZM251 1265L124 1376Q176 1431 234 1499T348 1643T451 1790L634 1643Q618 1610 582 1565T499 1472T404 1381T315 1306T251 1265Z" />
<glyph unicode="&#xee;" horiz-adv-x="616" d="M168 0V1113H448V0H168ZM59 1238L-74 1313L213 1662H408L688 1313L548 1238L307 1451L59 1238Z" />
<glyph unicode="&#xef;" horiz-adv-x="616" d="M168 0V1113H448V0H168ZM63 1291Q-4 1291 -47 1333T-91 1444Q-91 1514 -38 1564T83 1614Q158 1614 196 1570T234 1461Q234 1388 184 1340T63 1291ZM534 1291Q469 1291 425 1333T381 1444Q381 1514 434 1564T555 1614Q630
1614 668 1570T706 1461Q706 1388 656 1340T534 1291Z" />
<glyph unicode="&#xf0;" horiz-adv-x="1222" d="M618 -26Q457 -27 338 43T154 241T88 539Q88 716 150 847T326 1051T598 1124Q688 1124 752 1093T855 1012T910 910L828 949Q804 1097 720 1219T517 1426Q506 1433 491 1445T463 1464Q407 1504 344 1538T214 1594L269
1746Q364 1717 440 1684T589 1604Q603 1596 624 1584T658 1562Q812 1464 922 1318T1091 993T1150 620Q1150 400 1080 258T890 45T618 -26ZM625 169Q695 169 749 214T835 346T866 558Q866 598 866 642T866 731T862 816Q846 855 788 893T628 931Q505 931 441 826T376
538Q376 366 441 268T625 169ZM429 1248L294 1347L462 1545L487 1576Q504 1592 533 1627T592 1702T644 1769T665 1797L801 1698Q801 1698 781 1673T730 1611T669 1540T618 1487L594 1452L429 1248Z" />
<glyph unicode="&#xf1;" horiz-adv-x="1282" d="M161 0V1113H415L419 990Q457 1021 517 1052T649 1106T794 1130Q970 1134 1050 1038T1131 698V0H850V665Q850 798 815 853T672 903Q640 902 600 892T519 863T441 814V0H161ZM788 1284Q734 1284 697 1305T631 1355T575
1404T513 1425Q476 1425 452 1414T411 1382T381 1329L274 1375Q285 1439 318 1493T401 1581T517 1615Q571 1615 608 1594T673 1545T729 1495T791 1474Q823 1474 847 1484T890 1516T921 1570L1030 1520Q1023 1453 988 1400T901 1315T788 1284Z" />
<glyph unicode="&#xf2;" horiz-adv-x="1218" d="M599 -16Q456 -16 357 32T196 163T107 353T80 580Q83 759 153 881T345 1065T619 1128Q810 1128 924 1046T1089 828T1137 534Q1135 355 1065 233T875 47T599 -16ZM606 180Q732 179 790 274T849 546Q849 652 826 739T750
878T613 931Q487 933 429 840T370 574Q370 467 394 378T470 235T606 180ZM726 1378L616 1265Q585 1280 530 1321T415 1418T303 1531T226 1636L395 1788Q438 1723 495 1650T612 1505T726 1378Z" />
<glyph unicode="&#xf3;" horiz-adv-x="1218" d="M599 -16Q456 -16 357 32T196 163T107 353T80 580Q83 759 153 881T345 1065T619 1128Q810 1128 924 1046T1089 828T1137 534Q1135 355 1065 233T875 47T599 -16ZM606 180Q732 179 790 274T849 546Q849 652 826 739T750
878T613 931Q487 933 429 840T370 574Q370 467 394 378T470 235T606 180ZM562 1265L435 1376Q487 1431 545 1499T659 1643T762 1790L945 1643Q929 1610 893 1565T810 1472T715 1381T626 1306T562 1265Z" />
<glyph unicode="&#xf4;" horiz-adv-x="1218" d="M599 -16Q456 -16 357 32T196 163T107 353T80 580Q83 759 153 881T345 1065T619 1128Q810 1128 924 1046T1089 828T1137 534Q1135 355 1065 233T875 47T599 -16ZM606 180Q732 179 790 274T849 546Q849 652 826 739T750
878T613 931Q487 933 429 840T370 574Q370 467 394 378T470 235T606 180ZM370 1238L237 1313L524 1662H719L999 1313L859 1238L618 1451L370 1238Z" />
<glyph unicode="&#xf5;" horiz-adv-x="1218" d="M599 -16Q456 -16 357 32T196 163T107 353T80 580Q83 759 153 881T345 1065T619 1128Q810 1128 924 1046T1089 828T1137 534Q1135 355 1065 233T875 47T599 -16ZM606 180Q732 179 790 274T849 546Q849 652 826 739T750
878T613 931Q487 933 429 840T370 574Q370 467 394 378T470 235T606 180ZM752 1284Q698 1284 661 1305T595 1355T539 1404T477 1425Q440 1425 416 1414T375 1382T345 1329L238 1375Q249 1439 282 1493T365 1581T481 1615Q535 1615 572 1594T637 1545T693 1495T755
1474Q787 1474 811 1484T854 1516T885 1570L994 1520Q987 1453 952 1400T865 1315T752 1284Z" />
<glyph unicode="&#xf6;" horiz-adv-x="1218" d="M599 -16Q456 -16 357 32T196 163T107 353T80 580Q83 759 153 881T345 1065T619 1128Q810 1128 924 1046T1089 828T1137 534Q1135 355 1065 233T875 47T599 -16ZM606 180Q732 179 790 274T849 546Q849 652 826 739T750
878T613 931Q487 933 429 840T370 574Q370 467 394 378T470 235T606 180ZM374 1291Q307 1291 264 1333T220 1444Q220 1514 273 1564T394 1614Q469 1614 507 1570T545 1461Q545 1388 495 1340T374 1291ZM845 1291Q780 1291 736 1333T692 1444Q692 1514 745 1564T866
1614Q941 1614 979 1570T1017 1461Q1017 1388 967 1340T845 1291Z" />
<glyph unicode="&#xf7;" horiz-adv-x="1370" d="M691 1003Q619 1003 571 1050T523 1171Q524 1221 550 1263T618 1330T710 1356Q792 1356 834 1309T876 1190Q876 1139 851 1097T783 1029T691 1003ZM688 163Q617 163 570 209T522 329Q522 380 548 421T617 488T709
514Q789 514 832 467T875 348Q875 297 850 255T782 188T688 163ZM206 650V859H1163V650H206Z" />
<glyph unicode="&#xf8;" horiz-adv-x="1239" d="M294 -179L821 1328L946 1297L418 -210L294 -179ZM609 -16Q466 -16 366 32T205 163T116 353T90 580Q93 759 163 881T354 1065T629 1128Q820 1128 934 1046T1099 828T1147 534Q1144 355 1075 233T885 47T609 -16ZM616
180Q741 179 802 274T864 546Q864 652 839 739T761 878T623 931Q497 933 436 840T374 574Q374 467 399 378T478 235T616 180Z" />
<glyph unicode="&#xf9;" horiz-adv-x="1246" d="M489 -16Q375 -16 306 18T200 116T151 267T138 460V1114H417V459Q417 345 436 290T494 217T596 199Q634 199 675 210T750 236T805 266V1114H1085V-16H920Q878 -16 855 -4T832 57V132L837 98Q795 67 736 41T612 0T489
-16ZM729 1378L619 1265Q588 1280 533 1321T418 1418T306 1531T229 1636L398 1788Q441 1723 498 1650T615 1505T729 1378Z" />
<glyph unicode="&#xfa;" horiz-adv-x="1246" d="M489 -16Q375 -16 306 18T200 116T151 267T138 460V1114H417V459Q417 345 436 290T494 217T596 199Q634 199 675 210T750 236T805 266V1114H1085V-16H920Q878 -16 855 -4T832 57V132L837 98Q795 67 736 41T612 0T489
-16ZM565 1265L438 1376Q490 1431 548 1499T662 1643T765 1790L948 1643Q932 1610 896 1565T813 1472T718 1381T629 1306T565 1265Z" />
<glyph unicode="&#xfb;" horiz-adv-x="1246" d="M489 -16Q375 -16 306 18T200 116T151 267T138 460V1114H417V459Q417 345 436 290T494 217T596 199Q634 199 675 210T750 236T805 266V1114H1085V-16H920Q878 -16 855 -4T832 57V132L837 98Q795 67 736 41T612 0T489
-16ZM373 1238L240 1313L527 1662H722L1002 1313L862 1238L621 1451L373 1238Z" />
<glyph unicode="&#xfc;" horiz-adv-x="1246" d="M489 -16Q375 -16 306 18T200 116T151 267T138 460V1114H417V459Q417 345 436 290T494 217T596 199Q634 199 675 210T750 236T805 266V1114H1085V-16H920Q878 -16 855 -4T832 57V132L837 98Q795 67 736 41T612 0T489
-16ZM377 1291Q310 1291 267 1333T223 1444Q223 1514 276 1564T397 1614Q472 1614 510 1570T548 1461Q548 1388 498 1340T377 1291ZM848 1291Q783 1291 739 1333T695 1444Q695 1514 748 1564T869 1614Q944 1614 982 1570T1020 1461Q1020 1388 970 1340T848 1291Z"
/>
<glyph unicode="&#xfd;" horiz-adv-x="1132" d="M130 -478V-256Q147 -262 182 -267T238 -273Q283 -273 341 -254T450 -170T528 28L542 0H422L30 1114H328L533 444L625 111H577L658 444L828 1114H1126L764 -31Q700 -231 608 -335T408 -473Q381 -483 339 -489T265
-496Q250 -496 221 -493T164 -486T130 -478ZM541 1265L414 1376Q466 1431 524 1499T638 1643T741 1790L924 1643Q908 1610 872 1565T789 1472T694 1381T605 1306T541 1265Z" />
<glyph unicode="&#xfe;" horiz-adv-x="1273" d="M165 62L438 15L447 -166V-496H165V62ZM165 1622H443V1188L434 972L443 966V166L165 62V1622ZM611 -19Q539 -19 466 -10T330 12T222 39T165 62L443 214Q465 195 510 186T623 176Q700 176 761 222T859 356T896 572Q897
758 833 837T658 916Q588 916 532 891T443 840L406 982Q429 1006 470 1040T578 1101T745 1128Q863 1128 963 1071T1123 896T1184 598Q1184 414 1113 275T913 59T611 -19Z" />
<glyph unicode="&#xff;" horiz-adv-x="1132" d="M130 -478V-256Q147 -262 182 -267T238 -273Q283 -273 341 -254T450 -170T528 28L542 0H422L30 1114H328L533 444L625 111H577L658 444L828 1114H1126L764 -31Q700 -231 608 -335T408 -473Q381 -483 339 -489T265
-496Q250 -496 221 -493T164 -486T130 -478ZM353 1291Q286 1291 243 1333T199 1444Q199 1514 252 1564T373 1614Q448 1614 486 1570T524 1461Q524 1388 474 1340T353 1291ZM824 1291Q759 1291 715 1333T671 1444Q671 1514 724 1564T845 1614Q920 1614 958 1570T996
1461Q996 1388 946 1340T824 1291Z" />
<glyph unicode="&#x2013;" horiz-adv-x="1544" d="M180 546V764H1364V546H180Z" />
<glyph unicode="&#x2014;" horiz-adv-x="2210" d="M180 581V799H2030V581H180Z" />
<glyph unicode="&#x2018;" horiz-adv-x="551" d="M294 919Q242 938 198 987T127 1110T100 1277Q100 1393 136 1480T219 1622T300 1701L419 1626V1597Q396 1575 379 1533T352 1440T342 1340Q342 1257 375 1197T441 1120V1052L294 919Z" />
<glyph unicode="&#x2019;" horiz-adv-x="551" d="M248 919L130 994V1023Q150 1047 165 1089T188 1181T197 1280Q197 1365 167 1427T107 1506V1573L271 1695Q315 1677 353 1635T415 1526T438 1366Q438 1238 404 1147T325 999T248 919Z" />
<glyph unicode="&#x201a;" horiz-adv-x="551" d="M248 -528L130 -453V-424Q150 -400 165 -358T188 -266T197 -167Q197 -82 167 -20T107 59V126L271 248Q315 230 353 188T415 79T438 -81Q438 -209 404 -300T325 -448T248 -528Z" />
<glyph unicode="&#x201c;" horiz-adv-x="1153" d="M346 919Q294 938 250 987T179 1110T152 1277Q152 1393 188 1480T271 1622T352 1701L471 1626V1597Q448 1575 431 1533T404 1440T394 1340Q394 1257 427 1197T493 1120V1052L346 919ZM871 919Q819 938 775 987T704
1110T677 1277Q677 1393 713 1480T796 1622T877 1701L996 1626V1597Q973 1575 956 1533T929 1440T919 1340Q919 1257 952 1197T1018 1120V1052L871 919Z" />
<glyph unicode="&#x201d;" horiz-adv-x="1143" d="M269 919L151 994V1023Q171 1047 186 1089T209 1181T218 1280Q218 1365 188 1427T128 1506V1573L292 1695Q336 1677 374 1635T436 1526T459 1366Q459 1238 425 1147T346 999T269 919ZM796 919L678 994V1023Q698
1047 713 1089T736 1181T745 1280Q745 1365 715 1427T655 1506V1573L819 1695Q863 1677 901 1635T963 1526T986 1366Q986 1238 952 1147T873 999T796 919Z" />
<glyph unicode="&#x201e;" horiz-adv-x="1070" d="M248 -511L130 -436V-407Q150 -383 165 -341T188 -249T197 -150Q197 -65 167 -3T107 76V143L271 265Q315 247 353 205T415 96T438 -64Q438 -192 404 -283T325 -431T248 -511ZM769 -511L651 -436V-407Q671 -383
686 -341T709 -249T718 -150Q718 -65 688 -3T628 76V143L792 265Q836 247 874 205T936 96T959 -64Q959 -192 925 -283T846 -431T769 -511Z" />
<glyph unicode="&#x2022;" horiz-adv-x="861" d="M421 462Q353 462 298 494T212 582T183 706Q185 776 221 833T315 925T442 960Q545 960 612 891T677 717Q676 648 641 590T548 497T421 462Z" />
<glyph unicode="&#x2039;" horiz-adv-x="1180" d="M230 486V710L866 1124L934 927L434 550V650L934 277L866 81L230 486Z" />
<glyph unicode="&#x203a;" horiz-adv-x="1180" d="M946 486V710L310 1124L242 927L742 550V650L242 277L310 81L946 486Z" />
</font>
</defs>
</svg>
