<?xml version="1.0" standalone="no"?>
<!DOCTYPE svg PUBLIC "-//W3C//DTD SVG 1.1//EN" "http://www.w3.org/Graphics/SVG/1.1/DTD/svg11.dtd">
<svg xmlns="http://www.w3.org/2000/svg">
<defs >
<font id="Arimo" horiz-adv-x="1188" ><font-face
    font-family="Arimo"
    units-per-em="2048"
    panose-1="2 11 6 4 2 2 2 9 2 4"
    ascent="1854"
    descent="-434"
    alphabetic="0" />
<glyph unicode=" " horiz-adv-x="569" />
<glyph unicode="!" horiz-adv-x="569" d="M549 1409L329 397H181L353 1409H549ZM311 201L271 0H77L117 201H311Z" />
<glyph unicode="&quot;" horiz-adv-x="727" d="M803 1409L697 966H555L619 1409H803ZM434 1409L328 966H187L250 1409H434Z" />
<glyph unicode="#" horiz-adv-x="1139" d="M350 408L266 0H156L240 408H39V516H264L342 885H90V993H364L453 1401H563L475 993H838L926 1401H1036L948 993H1159V885H926L848 516H1108V408H825L737 0H627L713 408H350ZM375 516H737L815 885H455L375 516Z" />
<glyph unicode="$" horiz-adv-x="1139" d="M1072 425Q1072 240 935 135T540 21L509 -140H395L427 23Q226 37 121 127T-12 376L151 413Q176 298 248 239T455 170L551 663Q402 704 330 750Q257 795 219 859T181 1018Q181 1130 246 1213Q311 1296 427 1340T691 1385L716
1516H830L803 1379Q959 1360 1051 1285T1170 1087L1014 1042Q969 1209 776 1236L690 795Q886 742 979 650T1072 425ZM363 1018Q363 951 408 908T582 825L663 1240Q518 1235 441 1178T363 1018ZM887 413Q887 491 837 541T659 632L569 169Q728 177 807 238T887 413Z"
/>
<glyph unicode="%" horiz-adv-x="1821" d="M545 1421Q670 1421 737 1342T804 1113Q804 1025 788 941Q775 873 752 809T695 693Q585 524 406 524Q282 524 214 606T146 841Q146 987 193 1131Q288 1421 545 1421ZM425 0H260L1446 1409H1613L425 0ZM544 1313Q477 1313
434 1282T359 1185Q338 1141 321 1077T294 946T284 827Q284 637 410 637Q495 637 550 704Q583 745 607 812T646 952Q665 1053 665 1131Q665 1313 544 1313ZM1474 885Q1599 885 1666 806T1733 577Q1733 491 1716 400Q1703 333 1680 270T1624 157Q1514 -12 1335 -12Q1211
-12 1143 70T1075 305Q1075 451 1122 595Q1217 885 1474 885ZM1473 777Q1406 777 1363 746T1288 649Q1267 605 1250 541T1223 410T1213 291Q1213 101 1339 101Q1424 101 1479 168Q1514 210 1539 281T1577 429Q1594 522 1594 595Q1594 777 1473 777Z" />
<glyph unicode="&amp;" horiz-adv-x="1366" d="M1248 684Q1178 527 1106 408T957 208Q997 170 1047 150T1144 129Q1205 129 1256 145L1243 10Q1184 -12 1118 -12Q969 -12 847 110Q812 85 775 64T699 28Q639 4 574 -8T440 -20Q251 -20 142 80T33 351Q33 456 73
535T206 679T462 806Q448 865 441 923T434 1036Q434 1209 542 1313T833 1417Q971 1417 1057 1345T1144 1155Q1144 1039 1063 953T771 784Q740 771 709 759T646 734Q684 622 738 518T864 315Q924 383 981 477T1116 739L1248 684ZM592 1041Q592 961 611 863Q690 892
759 918T880 976Q931 1008 960 1049T990 1148Q990 1213 945 1254T826 1296Q714 1296 653 1229T592 1041ZM452 111Q534 111 609 136T753 212Q680 302 613 424T502 675Q334 609 269 537T203 354Q203 243 271 177T452 111Z" />
<glyph unicode="&apos;" horiz-adv-x="391" d="M449 1409L343 966H202L265 1409H449Z" />
<glyph unicode="(" horiz-adv-x="682" d="M855 1484Q277 975 277 262Q277 -127 484 -424H310Q96 -129 96 278Q96 650 246 957T681 1484H855Z" />
<glyph unicode=")" horiz-adv-x="682" d="M-199 -424Q379 85 379 798Q379 992 328 1164T172 1484H346Q560 1189 560 782Q560 410 410 103T-25 -424H-199Z" />
<glyph unicode="*" horiz-adv-x="797" d="M755 762L636 690L486 948L330 692L211 764L400 1012L120 1085L165 1219L432 1112L420 1409H556L543 1114L807 1217L852 1085L570 1012L755 762Z" />
<glyph unicode="+" horiz-adv-x="1196" d="M701 608V180H554V608H130V754H554V1182H701V754H1125V608H701Z" />
<glyph unicode="," horiz-adv-x="569" d="M299 51Q281 -44 248 -119T160 -262H37Q97 -194 133 -128T182 0H94L136 219H331L299 51Z" />
<glyph unicode="-" horiz-adv-x="682" d="M636 624L605 464H105L136 624H636Z" />
<glyph unicode="." horiz-adv-x="569" d="M318 219L275 0H80L123 219H318Z" />
<glyph unicode="/" horiz-adv-x="569" d="M745 1484L45 -20H-116L587 1484H745Z" />
<glyph unicode="0" horiz-adv-x="1139" d="M732 1430Q915 1430 1018 1307T1122 964Q1122 708 1044 469Q966 229 823 105T476 -20Q295 -20 192 109T89 465Q89 585 109 709T167 948T258 1153Q338 1289 455 1359T732 1430ZM491 127Q642 127 738 233Q776 275 808 339T866
482T910 646T937 814T947 973Q947 1128 888 1206T720 1284Q644 1284 583 1258T474 1178Q426 1125 388 1039T321 849T279 638T264 438Q264 283 323 205T491 127Z" />
<glyph unicode="1" horiz-adv-x="1139" d="M966 153L936 0H53L83 153H442L650 1223L289 1000L324 1180L701 1409H867L623 153H966Z" />
<glyph unicode="2" horiz-adv-x="1139" d="M949 153L920 0H-12L12 127Q67 220 135 293T277 426Q327 466 377 500T478 567T576 629Q647 674 709 719T819 815Q866 866 893 926T920 1063Q920 1161 858 1221T689 1282Q580 1282 499 1223T381 1044L211 1081Q265 1251
389 1340T700 1430Q822 1430 914 1386T1057 1262T1109 1078Q1109 973 1058 875Q1024 811 969 751T824 624T596 470Q449 377 359 301T222 153H949Z" />
<glyph unicode="3" horiz-adv-x="1139" d="M566 795Q749 795 839 868T930 1081Q930 1174 870 1228T708 1282Q589 1282 504 1221T384 1049L206 1063Q264 1249 397 1339T718 1430Q905 1430 1013 1338T1121 1086Q1121 933 1025 837T753 717L752 713Q883 687 956 609T1029
407Q1029 283 969 185Q908 88 794 34T526 -20Q399 -20 300 24Q99 115 48 338L212 386Q242 270 330 200T541 129Q682 129 761 203T841 404Q841 516 766 577T562 639H438L468 795H566Z" />
<glyph unicode="4" horiz-adv-x="1139" d="M846 319L784 0H604L666 319H13L40 459L859 1409H1058L874 461H1062L1034 319H846ZM826 1157Q798 1123 769 1090T711 1023L227 461H694L798 1007Q806 1045 812 1082T826 1157Z" />
<glyph unicode="5" horiz-adv-x="1139" d="M968 194Q901 91 784 36T505 -20Q320 -20 205 62T46 309L209 352Q240 238 319 183T515 127Q681 127 771 220T861 486Q861 608 792 680T607 752Q444 752 325 651H149L343 1409H1144L1115 1256H478L364 809Q414 851 486
875T641 899Q825 899 938 793T1051 506Q1051 322 968 194Z" />
<glyph unicode="6" horiz-adv-x="1139" d="M534 -20Q406 -20 312 41T166 211T115 464Q115 706 199 941Q282 1177 427 1303T761 1430Q911 1430 1007 1359T1139 1151L973 1115Q948 1196 891 1240T753 1284Q589 1284 474 1138T307 726Q367 816 458 863T663 911Q778
911 864 863T998 730T1047 533Q1047 381 981 253Q914 124 797 52T534 -20ZM288 421Q288 290 356 208T538 125Q631 125 704 176T819 318T861 522Q861 637 802 704T630 772Q537 772 459 730Q380 687 334 609T288 421Z" />
<glyph unicode="7" horiz-adv-x="1139" d="M435 0H247Q267 102 298 199T372 388Q414 480 462 567T579 753T746 973T986 1256H212L241 1409H1202L1174 1263Q1062 1132 986 1039T866 891Q823 836 785 783T713 677Q679 625 649 573T592 467Q539 361 500 245T435 0Z" />
<glyph unicode="8" horiz-adv-x="1139" d="M704 1429Q895 1429 1011 1338T1127 1091Q1127 951 1041 853T807 733L806 729Q916 696 974 619T1033 432Q1033 224 891 102T500 -20Q287 -20 171 81T54 360Q54 510 145 613T411 756V760Q320 798 270 873T220 1052Q220
1229 350 1329T704 1429ZM658 811Q792 811 866 882T941 1087Q941 1185 876 1239T683 1294Q550 1294 475 1227T400 1033Q400 930 468 871T658 811ZM566 672Q410 672 325 589T239 356Q239 244 313 181T519 117Q667 117 758 203T850 436Q850 547 774 609T566 672Z"
/>
<glyph unicode="9" horiz-adv-x="1139" d="M898 684Q831 583 747 532T559 481Q440 481 351 533Q261 584 212 676T163 881Q163 1033 229 1160Q295 1286 414 1358T682 1430Q813 1430 905 1373T1047 1209T1097 957Q1097 854 1080 743T1032 528T959 340Q895 214 816
135Q736 54 643 17T453 -20Q299 -20 204 49T70 257L228 302Q252 217 311 171T461 125Q619 125 730 269T898 684ZM925 1017Q925 1138 856 1211T678 1284Q530 1284 438 1176T346 879Q346 757 409 690T580 623Q675 623 757 674Q925 778 925 1017Z" />
<glyph unicode=":" horiz-adv-x="569" d="M487 1082L446 875H251L292 1082H487ZM317 207L276 0H81L122 207H317Z" />
<glyph unicode=";" horiz-adv-x="569" d="M500 1082L460 875H265L305 1082H500ZM300 51Q282 -44 249 -119T161 -262H38Q98 -194 134 -128T183 0H95L135 207H330L300 51Z" />
<glyph unicode="&lt;" horiz-adv-x="1196" d="M1126 307V154L131 571V776L1126 1194V1040L268 674L1126 307Z" />
<glyph unicode="=" horiz-adv-x="1196" d="M1125 1004V856H130V1004H1125ZM1125 492V344H130V492H1125Z" />
<glyph unicode="&gt;" horiz-adv-x="1196" d="M1126 571L131 154V307L989 674L131 1040V1194L1126 776V571Z" />
<glyph unicode="?" horiz-adv-x="1139" d="M701 1430Q833 1430 930 1385T1080 1259T1133 1073Q1133 976 1103 908T1024 789Q992 755 954 728T875 677T794 629Q731 594 689 563T619 502Q591 472 577 442T555 377H380Q394 457 428 517Q452 557 481 589T561 659T702
746Q755 776 793 801T854 848Q900 889 923 939T946 1052Q946 1150 873 1210T684 1270Q544 1270 453 1200T324 1008L159 1048Q222 1243 358 1336T701 1430ZM533 201L494 0H299L338 201H533Z" />
<glyph unicode="@" horiz-adv-x="2079" d="M1935 755Q1935 569 1878 419Q1820 268 1718 186T1488 104Q1387 104 1334 149T1281 280Q1282 297 1282 315T1284 350H1278Q1212 227 1115 166T904 104Q747 104 661 206T574 489Q574 652 639 794Q704 935 819 1018T1076
1101Q1294 1101 1377 919H1383L1422 1079H1578L1462 573Q1425 412 1425 320Q1425 273 1445 250T1506 226Q1587 226 1654 295Q1722 364 1760 485T1799 753Q1799 931 1722 1071Q1645 1209 1500 1283T1161 1358Q920 1358 733 1251Q547 1144 441 943T335 491Q335 297
414 151Q492 3 640 -76T987 -155Q1301 -155 1590 7L1645 -105Q1500 -192 1331 -237T987 -283Q747 -283 568 -188Q388 -93 291 84T194 491Q194 770 319 1000Q444 1229 664 1356T1159 1484Q1400 1484 1575 1394Q1750 1303 1842 1138T1935 755ZM1329 747Q1329 849
1263 911T1087 974Q986 974 908 911Q829 847 784 733T739 491Q739 371 786 303T933 235Q1013 235 1086 279T1214 401Q1251 453 1276 515T1315 638T1329 747Z" />
<glyph unicode="A" horiz-adv-x="1366" d="M347 412L107 0H-101L747 1409H964L1256 0H1061L986 412H347ZM830 1265Q823 1252 814 1235T793 1196L431 561H958L856 1114Q849 1152 843 1190T830 1265Z" />
<glyph unicode="B" horiz-adv-x="1366" d="M1247 439Q1247 226 1091 113T658 0H63L336 1409H846Q1055 1409 1175 1323T1296 1087Q1296 802 957 743Q1095 720 1171 639T1247 439ZM411 810H742Q920 810 1008 874T1097 1068Q1097 1162 1030 1209T829 1256H498L411
810ZM283 153H651Q861 153 958 226T1056 442Q1056 549 977 605T748 661H382L283 153Z" />
<glyph unicode="C" horiz-adv-x="1479" d="M1215 426L1358 337Q1232 149 1072 65T700 -20Q519 -20 386 53Q253 125 183 259T113 569Q113 815 218 1014Q323 1213 509 1321T926 1430Q1143 1430 1292 1340T1490 1085L1310 1030Q1274 1142 1171 1208T916 1274Q731
1274 592 1186Q452 1098 377 937T302 566Q302 366 411 251T713 135Q861 135 989 208T1215 426Z" />
<glyph unicode="D" horiz-adv-x="1479" d="M744 1409Q952 1409 1102 1335T1332 1122T1413 791Q1413 554 1310 378Q1207 201 1014 101T575 0H63L336 1409H744ZM283 153H567Q763 153 911 231Q1060 308 1139 453T1219 793Q1219 1012 1093 1134T740 1256H498L283 153Z" />
<glyph unicode="E" horiz-adv-x="1366" d="M1183 156L1153 0H63L336 1409H1385L1355 1253H497L409 801H1207L1177 647H379L284 156H1183Z" />
<glyph unicode="F" horiz-adv-x="1251" d="M364 571L254 0H63L336 1409H1347L1317 1253H497L395 729H1191L1160 571H364Z" />
<glyph unicode="G" horiz-adv-x="1593" d="M742 -20Q437 -20 269 136T101 573Q101 823 206 1019Q311 1216 503 1323T944 1430Q1166 1430 1308 1346T1505 1098L1312 1044Q1275 1159 1178 1216T932 1274Q741 1274 596 1188Q451 1102 374 944T297 577Q297 366 415
251T748 135Q886 135 1012 174T1231 291L1282 545H861L893 705H1490L1390 210Q1250 90 1092 35T742 -20Z" />
<glyph unicode="H" horiz-adv-x="1479" d="M381 653L254 0H63L337 1409H528L412 813H1179L1295 1409H1481L1207 0H1021L1148 653H381Z" />
<glyph unicode="I" horiz-adv-x="569" d="M546 1409L272 0H81L355 1409H546Z" />
<glyph unicode="J" horiz-adv-x="1024" d="M381 -20Q222 -20 122 73T-5 343L163 376Q186 259 242 197T398 135Q463 135 511 161Q567 192 604 260T663 440L820 1253H529L559 1409H1040L847 423Q804 199 690 90T381 -20Z" />
<glyph unicode="K" horiz-adv-x="1366" d="M360 545L254 0H63L336 1409H527L391 718L531 847L1196 1409H1441L691 779L1248 0H1022L550 674L360 545Z" />
<glyph unicode="L" horiz-adv-x="1139" d="M996 156L966 0H63L336 1409H527L284 156H996Z" />
<glyph unicode="M" horiz-adv-x="1706" d="M433 1041L233 0H63L336 1409H572L761 432Q765 413 773 362T793 227Q819 280 845 333T897 440L1450 1409H1706L1433 0H1261L1441 928Q1459 1020 1475 1095T1506 1228Q1476 1165 1450 1113T1401 1020T1361 948L813 0H689L504
948Q501 962 491 1032T463 1228Q459 1198 452 1152T433 1041Z" />
<glyph unicode="N" horiz-adv-x="1479" d="M414 943L233 0H63L336 1409H548L1082 194Q1095 289 1106 360T1127 478L1308 1409H1480L1207 0H987L456 1210Q445 1125 435 1058T414 943Z" />
<glyph unicode="O" horiz-adv-x="1593" d="M938 1430Q1123 1430 1257 1359T1463 1158T1536 851Q1532 585 1424 388Q1317 192 1131 86T709 -20Q508 -20 369 61Q244 132 178 263T111 573Q111 813 217 1013Q322 1213 511 1321T938 1430ZM929 1276Q730 1276 590 1187Q497
1128 433 1027T336 805T302 563Q302 354 408 245T718 135Q915 135 1054 222Q1146 280 1211 377T1310 597T1345 847Q1345 1054 1237 1165T929 1276Z" />
<glyph unicode="P" horiz-adv-x="1366" d="M852 1409Q1083 1409 1218 1305T1353 1020Q1353 874 1284 768T1088 606T784 549H360L254 0H63L336 1409H852ZM390 700H777Q968 700 1063 778T1159 1011Q1159 1130 1080 1193T847 1256H498L390 700Z" />
<glyph unicode="Q" horiz-adv-x="1593" d="M928 1430Q1113 1430 1247 1359T1453 1158T1526 851Q1522 610 1432 423Q1353 258 1217 150Q1050 18 822 -12Q839 -133 889 -188T1038 -244Q1099 -244 1161 -231L1143 -365Q1068 -387 974 -387Q823 -387 742 -301T638
-17Q511 -8 412 36T243 156Q101 310 101 573Q101 813 207 1013Q312 1213 501 1321T928 1430ZM919 1276Q720 1276 580 1187Q487 1128 423 1027T326 805T292 563Q292 354 398 245T708 135Q905 135 1044 222Q1136 280 1201 377T1300 597T1335 847Q1335 1054 1227 1165T919
1276Z" />
<glyph unicode="R" horiz-adv-x="1479" d="M367 585L254 0H63L336 1409H948Q1101 1409 1212 1355Q1309 1309 1362 1228T1416 1039Q1416 851 1308 741T989 602L1257 0H1051L808 585H367ZM857 736Q1038 736 1130 811T1222 1024Q1222 1136 1148 1196T925 1256H498L397
736H857Z" />
<glyph unicode="S" horiz-adv-x="1366" d="M616 -20Q367 -20 230 68T58 338L235 375Q262 246 355 188T630 130Q849 130 950 195T1051 396Q1051 463 1022 503T923 577Q888 593 828 613T682 657Q514 703 427 754Q342 804 299 873T255 1041Q255 1163 324 1250T522
1383T824 1430Q1044 1430 1177 1354T1344 1132L1171 1081Q1138 1186 1053 1236T823 1286Q635 1286 541 1227T447 1050Q447 990 473 953T557 886Q586 872 644 853T789 810Q887 783 957 757T1070 706Q1156 656 1201 585T1246 408Q1246 202 1091 91T616 -20Z" />
<glyph unicode="T" horiz-adv-x="1251" d="M858 1253L614 0H424L668 1253H184L214 1409H1372L1342 1253H858Z" />
<glyph unicode="U" horiz-adv-x="1479" d="M654 -20Q421 -20 287 100T153 431Q153 475 160 536T176 635L326 1409H517L355 566Q338 476 338 423Q338 287 425 211T670 135Q862 135 977 236T1131 541L1299 1409H1489L1319 530Q1265 257 1097 119T654 -20Z" />
<glyph unicode="V" horiz-adv-x="1366" d="M1525 1409L677 0H479L177 1409H371L569 417Q578 355 586 293T604 168Q637 230 670 292T737 417L1317 1409H1525Z" />
<glyph unicode="W" horiz-adv-x="1933" d="M961 895L542 0H319L177 1409H374L453 514Q459 437 463 350T469 168Q509 262 541 337T600 470L1043 1409H1226L1301 532Q1308 455 1312 364T1318 168Q1356 251 1376 302T1412 387L1893 1409H2094L1406 0H1183L1112 895Q1105
1032 1101 1113T1096 1219Q1058 1119 1024 1038T961 895Z" />
<glyph unicode="X" horiz-adv-x="1366" d="M999 0L696 606L172 0H-39L615 746L275 1409H474L744 858L1219 1409H1430L830 733L1198 0H999Z" />
<glyph unicode="Y" horiz-adv-x="1366" d="M785 584L672 0H482L597 584L213 1409H409L715 735L1275 1409H1489L785 584Z" />
<glyph unicode="Z" horiz-adv-x="1251" d="M1112 156L1082 0H-40L-13 143L1041 1253H276L306 1409H1308L1281 1270L227 156H1112Z" />
<glyph unicode="[" horiz-adv-x="569" d="M392 -296L367 -425H-39L331 1484H738L713 1355H480L159 -296H392Z" />
<glyph unicode="\" horiz-adv-x="569" d="M294 1484L472 -20H320L146 1484H294Z" />
<glyph unicode="]" horiz-adv-x="569" d="M608 1484L237 -425H-169L-144 -296H88L409 1355H176L201 1484H608Z" />
<glyph unicode="^" horiz-adv-x="961" d="M508 1306L202 673H40L408 1409H611L981 673H817L508 1306Z" />
<glyph unicode="_" horiz-adv-x="1139" d="M1018 -174V-250H-160V-174H1018Z" />
<glyph unicode="`" horiz-adv-x="682" d="M503 1221L500 1201H412L130 1479L135 1508H342L503 1221Z" />
<glyph unicode="a" horiz-adv-x="1139" d="M927 -10Q834 -10 792 28T749 143Q749 159 751 175T754 207H748Q665 81 576 31T361 -20Q221 -20 134 64T46 278Q46 463 178 558T601 657L833 660Q852 755 852 787Q852 878 799 921T652 965Q533 965 472 923T384 793L206
822Q251 969 362 1035T662 1102Q833 1102 932 1022T1032 807Q1032 741 1013 650L939 272Q928 222 928 184Q928 147 948 129T1009 111Q1038 111 1069 118L1055 6Q1022 -2 990 -6T927 -10ZM237 286Q237 211 285 164T411 117Q508 117 586 159Q664 200 715 267T782
411L809 536L610 532Q491 529 424 511T318 464Q281 436 259 392T237 286Z" />
<glyph unicode="b" horiz-adv-x="1139" d="M744 1102Q901 1102 988 1008T1076 748Q1076 647 1061 549T1015 355Q954 165 842 73T557 -20Q434 -20 357 32T248 178H245Q241 157 234 123T218 59Q212 35 208 19T202 0H29Q34 15 48 82T78 223L323 1484H503L420 1061Q416
1038 408 1003T386 921H390Q463 1016 544 1059T744 1102ZM692 963Q501 963 403 801Q374 752 353 688T317 555Q298 455 298 377Q298 252 361 183T538 113Q662 113 734 189Q770 227 798 290T847 428T877 579T888 716Q888 839 841 901T692 963Z" />
<glyph unicode="c" horiz-adv-x="1024" d="M469 122Q572 122 644 179T758 352L914 303Q792 -20 465 -20Q273 -20 170 89T67 395Q67 596 140 767Q212 939 331 1020T625 1102Q794 1102 892 1017T1001 784L824 759Q818 856 764 908T619 961Q472 961 392 870T271 587Q261
538 256 488T251 389Q251 122 469 122Z" />
<glyph unicode="d" horiz-adv-x="1139" d="M401 -21Q244 -21 157 73T69 333Q69 535 131 727Q193 918 304 1009T588 1101Q711 1101 788 1049T898 903H903Q910 944 917 984T931 1065L1013 1484H1193L948 223Q934 153 925 97T910 0H738Q738 51 759 160H754Q681 65
600 22T401 -21ZM453 118Q645 118 742 281Q775 335 798 409T834 562T847 704Q847 829 784 898T607 968Q485 968 414 896Q367 848 332 755T277 557T257 365Q257 242 304 180T453 118Z" />
<glyph unicode="e" horiz-adv-x="1139" d="M256 503Q250 469 247 390Q247 257 313 186T514 115Q611 115 690 163T813 294L951 231Q878 100 766 40T493 -20Q292 -20 181 91T69 405Q69 604 140 766Q211 925 340 1013T630 1102Q835 1102 949 999T1063 708Q1063 604
1039 503H256ZM280 641H880L884 713Q884 837 820 903T634 969Q500 969 409 884T280 641Z" />
<glyph unicode="f" horiz-adv-x="569" d="M434 951L249 0H69L254 951H102L128 1082H280L303 1204Q325 1314 364 1372Q402 1428 463 1456T622 1484Q697 1484 746 1472L720 1335Q709 1337 698 1338T675 1341Q664 1342 652 1342T629 1343Q565 1343 532 1311T479 1179L460
1082H671L645 951H434Z" />
<glyph unicode="g" horiz-adv-x="1139" d="M397 -425Q228 -425 130 -362T4 -173L167 -131Q201 -288 401 -288Q543 -288 621 -215T731 27Q739 71 748 114T765 201H763Q702 113 654 73Q606 34 547 13T410 -8Q257 -8 164 92T70 359Q70 448 87 548T135 741T210 902Q275
1004 368 1052T588 1101Q709 1101 792 1044T900 897H902Q907 922 917 963T937 1040T950 1082H1121L1102 1000L1072 858L911 31Q863 -211 739 -318T397 -425ZM259 373Q259 125 466 125Q574 125 662 204Q750 282 798 419T847 704Q847 829 783 898T607 968Q517 968
457 931T356 815Q329 763 307 685T272 523T259 373Z" />
<glyph unicode="h" horiz-adv-x="1139" d="M383 897Q466 1012 549 1056T748 1101Q896 1101 970 1028T1045 817Q1045 785 1040 744T1024 653L897 0H716L842 645Q860 734 860 795Q860 962 681 962Q597 962 526 919T404 796T331 606L213 0H34L322 1484H502L427 1098Q418
1048 406 998T380 897H383Z" />
<glyph unicode="i" horiz-adv-x="455" d="M501 1484L467 1312H287L321 1484H501ZM423 1082L212 0H33L243 1082H423Z" />
<glyph unicode="j" horiz-adv-x="455" d="M502 1484L469 1312H289L322 1484H502ZM-100 -425Q-153 -425 -229 -411L-206 -275Q-180 -279 -160 -281T-123 -283Q-64 -283 -34 -241T13 -107L244 1082H424L187 -134Q156 -292 86 -358T-100 -425Z" />
<glyph unicode="k" horiz-adv-x="1024" d="M285 378L213 0H34L322 1484H502L323 567L527 757L888 1082H1110L580 617L916 0H721L453 502L285 378Z" />
<glyph unicode="l" horiz-adv-x="455" d="M501 1484L212 0H33L321 1484H501Z" />
<glyph unicode="m" horiz-adv-x="1706" d="M660 0L784 634Q809 756 809 808Q809 883 771 922T647 962Q531 962 445 863T331 604L213 0H34L200 851Q220 946 239 1082H409Q409 1075 404 1041T393 966T381 897H384Q457 1011 530 1056T706 1101Q954 1101 983 869Q1066
999 1146 1050T1331 1101Q1466 1101 1538 1028T1611 817Q1611 754 1590 653L1463 0H1285L1409 634Q1434 756 1434 808Q1434 883 1396 922T1272 962Q1156 962 1070 865T956 607L838 0H660Z" />
<glyph unicode="n" horiz-adv-x="1139" d="M332 606L214 0H34L200 851Q210 898 219 956T239 1082H409Q409 1075 404 1041T393 966T381 897H384Q467 1012 550 1056T749 1101Q897 1101 971 1028T1046 817Q1046 785 1041 744T1025 653L898 0H717L843 645Q861 734
861 795Q861 962 682 962Q598 962 527 919T405 796T332 606Z" />
<glyph unicode="o" horiz-adv-x="1139" d="M1074 683Q1074 553 1034 413T920 175Q845 78 737 29T491 -20Q295 -20 181 98T67 419Q72 626 141 781Q211 939 335 1020T642 1101Q852 1101 963 992T1074 683ZM888 683Q888 969 640 969Q505 969 424 900Q370 854 332
774T273 599T252 416Q252 268 316 191T502 113Q605 113 667 148T777 256Q824 330 853 443T888 683Z" />
<glyph unicode="p" horiz-adv-x="1139" d="M554 -20Q431 -20 354 32T244 178H239Q239 173 237 157T231 113Q227 86 201 -48T128 -425H-51L198 861Q203 885 207 909T216 957Q221 989 225 1020T233 1082H400Q400 1064 397 1032T390 968T383 921H387Q460 1016 541
1059T741 1102Q898 1102 985 1008T1073 748Q1073 544 1012 355Q951 165 839 73T554 -20ZM689 963Q590 963 520 923T400 801Q368 747 344 672T308 520T295 377Q295 252 358 183T535 113Q659 113 731 189Q767 227 795 290T844 428T874 579T885 716Q885 839 838 901T689
963Z" />
<glyph unicode="q" horiz-adv-x="1139" d="M401 -21Q244 -21 157 73T69 333Q69 535 131 727Q193 918 304 1009T588 1101Q711 1101 788 1049T898 903H903Q911 939 920 981T939 1056T952 1096H1125Q1114 1057 1098 984T1060 801Q1001 495 941 188T822 -425H642L727
14L759 160H755Q682 65 601 22T401 -21ZM453 118Q552 118 622 158T742 281Q775 335 798 409T834 562T847 704Q847 829 784 898T607 968Q485 968 414 896Q367 848 332 755T277 557T257 365Q257 242 304 180T453 118Z" />
<glyph unicode="r" horiz-adv-x="682" d="M718 938Q676 951 628 951Q558 951 496 901T389 763T324 564L214 0H34L196 830Q202 865 208 899T221 968Q226 997 230 1025T239 1082H409L382 913L374 861H378Q444 994 508 1048T656 1102Q700 1102 751 1088L718 938Z" />
<glyph unicode="s" horiz-adv-x="1024" d="M907 317Q907 155 783 68T425 -20Q251 -20 149 38T5 223L152 279Q185 191 254 151T441 111Q732 111 732 301Q732 363 681 405Q629 446 465 497Q336 540 273 579Q209 619 175 672T141 797Q141 942 257 1020T584 1099Q761
1099 860 1036T982 844L819 819Q797 898 736 933T572 968Q448 968 382 929T315 817Q315 775 336 747T397 695Q437 672 579 627Q707 587 771 546Q836 505 871 449T907 317Z" />
<glyph unicode="t" horiz-adv-x="569" d="M275 -20Q190 -20 142 31T93 166Q93 221 108 296L234 951H109L135 1082H262L367 1324H487L440 1082H640L614 951H414L289 306Q277 246 277 211Q277 167 299 145T367 123Q406 123 467 137L448 4Q349 -20 275 -20Z" />
<glyph unicode="u" horiz-adv-x="1139" d="M748 185Q665 70 582 26T383 -19Q235 -19 161 54T86 265Q86 287 88 312T95 366T107 429L234 1082H415L289 437Q271 349 271 287Q271 120 450 120Q534 120 605 163T728 287T800 476L918 1082H1098L932 231Q922 184 913
126T893 0H723Q723 8 728 42T740 117T751 185H748Z" />
<glyph unicode="v" horiz-adv-x="1024" d="M1122 1082L507 0H294L112 1082H299L400 378Q403 356 406 328T412 266T419 194L423 141L449 194Q472 241 495 286T542 376L926 1082H1122Z" />
<glyph unicode="w" horiz-adv-x="1479" d="M762 803L402 0H194L102 1082H280L320 347Q322 298 324 249T327 149Q347 196 367 244T408 339L749 1082H942L986 339Q989 285 990 238T992 149Q999 164 1018 209T1071 327L1413 1082H1589L1068 0H859L822 698L816 934Q801
897 788 864T762 803Z" />
<glyph unicode="x" horiz-adv-x="1024" d="M497 444L117 0H-82L410 556L146 1082H335L528 661L878 1082H1084L615 558L896 0H706L497 444Z" />
<glyph unicode="y" horiz-adv-x="1024" d="M16 -425Q-54 -425 -116 -411L-85 -277Q-37 -285 -8 -285Q87 -285 159 -221T302 -35L329 12L112 1082H295L407 484Q415 444 422 400T435 314T445 241T449 196Q454 207 460 220T475 250L597 475L928 1082H1127L501 0Q389
-195 323 -270Q256 -348 182 -386T16 -425Z" />
<glyph unicode="z" horiz-adv-x="1024" d="M851 139L826 0H-12L11 137L753 943H187L212 1082H996L972 945L230 139H851Z" />
<glyph unicode="{" horiz-adv-x="684" d="M366 -425Q255 -425 190 -359T124 -175Q124 -111 134 -58L190 229Q199 273 199 306Q199 389 153 425T21 466L46 593Q262 600 307 829L377 1191Q405 1334 480 1409T698 1484H833L808 1355H745Q656 1355 608 1308T535 1140L466
784Q447 689 382 622T223 532V530Q292 513 332 463T373 335Q373 308 367 276L306 -43Q301 -67 297 -110T293 -171Q293 -227 327 -261T439 -296H487L462 -425H366Z" />
<glyph unicode="|" horiz-adv-x="532" d="M379 1484V-454H213V1484H379Z" />
<glyph unicode="}" horiz-adv-x="684" d="M308 1484Q419 1484 484 1418T550 1234Q550 1170 540 1117L484 830Q475 787 475 753Q475 670 521 634T653 593L628 466Q412 459 367 230L297 -132Q269 -275 194 -350T-24 -425H-159L-134 -296H-71Q18 -296 66 -249T139
-81L208 275Q227 370 292 437T451 527V529Q382 546 342 596T301 724Q301 752 307 783L368 1102Q373 1126 377 1170T381 1230Q381 1286 347 1320T235 1355H187L212 1484H308Z" />
<glyph unicode="~" horiz-adv-x="1196" d="M874 553Q805 553 733 575T587 623Q458 668 370 668Q303 668 245 648T122 580V723Q233 807 385 807Q436 807 494 796T620 761Q718 727 767 712T841 694T890 690Q1019 690 1134 782V633Q1074 591 1017 572T874 553Z" />
<glyph unicode="&#xa0;" horiz-adv-x="569" />
<glyph unicode="&#xa1;" horiz-adv-x="682" d="M536 1083L496 882H302L342 1083H536ZM284 686H432L260 -326H64L284 686Z" />
<glyph unicode="&#xa2;" horiz-adv-x="1139" d="M560 278Q663 278 735 335T849 508L1005 459Q947 305 843 225T588 136L556 -31H432L466 142Q317 164 238 270T158 551Q158 671 187 790Q206 866 234 934T299 1054Q364 1148 457 1199T683 1257L711 1409H835L806
1251Q937 1232 1010 1150T1092 940L915 915Q909 1012 855 1064T710 1117Q583 1117 506 1050Q457 1007 421 928T365 757Q354 705 348 651T342 545Q342 278 560 278Z" />
<glyph unicode="&#xa3;" horiz-adv-x="1139" d="M1075 310Q1038 158 938 79T688 0H-12L17 154Q114 200 172 278T255 481L283 625H97L122 754H308L363 1034Q403 1239 515 1334T816 1430Q964 1430 1059 1368T1178 1200L1014 1150Q994 1214 938 1248T809 1282Q695
1282 632 1225T544 1042L488 754H896L871 625H463L436 478Q416 367 354 281T202 153H666Q769 153 833 195T924 334L1075 310Z" />
<glyph unicode="&#xa4;" horiz-adv-x="1139" d="M165 684Q165 822 243 936L143 1036L247 1139L346 1038Q459 1120 600 1120Q736 1120 851 1040L948 1137L1052 1032L956 936Q1036 818 1036 684Q1036 545 954 432L1054 332L952 227L851 328Q737 250 600 250Q458
250 348 330L243 225L141 330L243 432Q165 546 165 684ZM319 686Q319 610 357 547T458 445T600 406Q676 406 739 443T841 544T880 686Q880 764 842 827T741 929T600 967Q522 967 459 929T357 826T319 686Z" />
<glyph unicode="&#xa5;" horiz-adv-x="1139" d="M604 303L545 0H367L426 303H45L70 430H451L483 584H100L124 709H444L159 1409H352L598 762L1098 1409H1303L745 709H1066L1042 584H659L629 430H1012L987 303H604Z" />
<glyph unicode="&#xa6;" horiz-adv-x="532" d="M379 1485V707H213V1485H379ZM379 324V-455H213V324H379Z" />
<glyph unicode="&#xa7;" horiz-adv-x="1139" d="M1010 673Q1010 561 942 490T736 388Q868 306 868 165Q868 3 744 -84T383 -172Q212 -172 109 -114T-34 71L113 127Q146 39 215 -1T402 -41Q545 -41 619 7T693 149Q693 181 680 207T640 256Q589 298 427 348Q102
448 102 673Q102 896 378 957Q244 1043 244 1182Q244 1327 361 1405T695 1484Q868 1484 965 1421T1085 1229L922 1204Q902 1278 844 1315T688 1353Q418 1353 418 1190Q418 1136 472 1092Q498 1070 550 1047T680 999Q862 942 936 863T1010 673ZM276 688Q276 642
303 604T391 531Q451 498 550 468Q682 473 758 523T835 662Q835 713 807 750T724 817Q671 845 533 886Q416 880 346 826T276 688Z" />
<glyph unicode="&#xa8;" horiz-adv-x="682" d="M729 1403L694 1219H521L556 1403H729ZM347 1403L312 1219H137L172 1403H347Z" />
<glyph unicode="&#xa9;" horiz-adv-x="1509" d="M1509 707Q1509 514 1413 346Q1316 177 1148 81T786 -16Q590 -16 420 85Q251 186 157 352T63 707Q63 901 160 1068Q257 1236 425 1333T786 1430Q980 1430 1149 1333Q1317 1236 1413 1069T1509 707ZM1417 707Q1417
876 1333 1021Q1248 1167 1102 1251T786 1335Q618 1335 472 1251Q326 1166 242 1020T158 707Q158 537 243 392Q327 246 472 162T786 78Q957 78 1103 163Q1249 247 1333 392T1417 707ZM797 279Q609 279 505 392T401 709Q401 912 501 1022T790 1133Q1034 1133 1130
924L1016 891Q984 960 926 994T792 1028Q665 1028 598 948T530 709Q530 554 601 469T797 383Q953 383 1030 539L1145 504Q1083 383 999 331T797 279Z" />
<glyph unicode="&#xaa;" horiz-adv-x="758" d="M723 657Q657 657 622 686T586 765L590 805H586Q520 720 455 686T311 651Q210 651 150 707T89 858Q89 983 180 1046T453 1112L632 1116Q650 1206 650 1229Q650 1331 523 1331Q447 1331 401 1298T339 1196L207 1213Q236
1323 315 1377T525 1432Q652 1432 721 1379T791 1233Q791 1214 789 1193T781 1149L728 874Q725 858 724 845T722 821Q722 766 770 766Q788 766 814 774L799 670Q763 657 723 657ZM243 865Q243 818 272 790T352 762Q412 762 465 791T555 868T604 972L614 1024L475
1020Q352 1017 298 979T243 865Z" />
<glyph unicode="&#xab;" horiz-adv-x="1139" d="M983 164L978 141H818L551 506L563 569L973 940H1131L1125 903L715 531L983 164ZM505 163L500 141H341L76 506L88 569L496 940H653L647 902L240 530L505 163Z" />
<glyph unicode="&#xac;" horiz-adv-x="1196" d="M1095 754V180H950V608H100V754H1095Z" />
<glyph unicode="&#xad;" horiz-adv-x="682" d="M636 624L605 464H105L136 624H636Z" />
<glyph unicode="&#xae;" horiz-adv-x="1509" d="M1509 707Q1509 514 1413 346Q1316 177 1148 81T786 -16Q590 -16 420 85Q251 186 157 352T63 707Q63 901 160 1068Q257 1236 425 1333T786 1430Q980 1430 1149 1333Q1317 1236 1413 1069T1509 707ZM1417 707Q1417
876 1333 1021Q1248 1167 1102 1251T786 1335Q618 1335 472 1251Q326 1166 242 1020T158 707Q158 537 243 392Q327 246 472 162T786 78Q957 78 1103 163Q1249 247 1333 392T1417 707ZM627 625V289H500V1120H807Q949 1120 1024 1057T1100 883Q1100 781 1048 720T911
639L1132 289H987L788 625H627ZM973 881Q973 950 926 986T797 1022H627V721H809Q889 721 931 763T973 881Z" />
<glyph unicode="&#xaf;" horiz-adv-x="1131" d="M1148 1620V1503H-17V1620H1148Z" />
<glyph unicode="&#xb0;" horiz-adv-x="819" d="M770 1145Q770 1066 731 1001T627 898T483 860Q405 860 340 899T235 1002T196 1145Q196 1223 234 1288T338 1391T483 1430Q563 1430 628 1392T731 1290T770 1145ZM661 1145Q661 1221 610 1273T483 1325Q408 1325
357 1272T305 1145Q305 1071 357 1018T483 965Q557 965 609 1017T661 1145Z" />
<glyph unicode="&#xb1;" horiz-adv-x="1124" d="M636 680V285H489V680H65V825H489V1219H636V825H1060V680H636ZM1060 145V0H65V145H1060Z" />
<glyph unicode="&#xb2;" horiz-adv-x="682" d="M30 563L48 666Q77 713 117 754Q143 780 170 803T239 855T351 925Q485 1003 523 1036Q564 1070 585 1107T606 1192Q606 1243 572 1279T473 1315Q403 1315 353 1276T289 1174L164 1189Q193 1303 273 1362T480 1421Q599
1421 670 1361T742 1206Q742 1158 725 1113Q711 1076 686 1044T628 981Q601 958 551 925T427 848Q330 792 280 754T203 676H651L631 563H30Z" />
<glyph unicode="&#xb3;" horiz-adv-x="682" d="M332 1049H389Q486 1049 538 1090T590 1204Q590 1252 557 1283T467 1315Q399 1315 351 1280T283 1180L158 1205Q192 1313 271 1367T477 1421Q588 1421 658 1365T728 1218Q728 1129 674 1073T510 995V993Q583 980
628 933T673 817Q673 696 584 624T350 551Q89 551 53 785L182 801Q191 729 236 692T356 655Q442 655 489 699T537 820Q537 874 493 907T372 940H311L332 1049Z" />
<glyph unicode="&#xb4;" horiz-adv-x="682" d="M643 1479L269 1201H175L178 1221L431 1508H648L643 1479Z" />
<glyph unicode="&#xb5;" horiz-adv-x="1180" d="M253 -44L179 -425H-1L292 1082H473L339 396Q334 364 331 339T328 295Q328 119 490 119Q602 119 684 214T795 472L913 1082H1093L936 275Q927 235 927 193Q927 121 984 121Q994 121 1040 129L1018 0Q944 -20 895
-20Q828 -20 797 19T760 132L759 169H757Q693 75 616 28T448 -20Q386 -20 341 1T273 59V59L253 -44Z" />
<glyph unicode="&#xb6;" horiz-adv-x="1100" d="M619 1307V-264H506V694Q338 694 241 786T144 1049Q144 1218 242 1313T514 1409H1077V1307H948V-264H836V1307H619Z" />
<glyph unicode="&#xb7;" horiz-adv-x="682" d="M459 666L416 446H221L264 666H459Z" />
<glyph unicode="&#xb8;" horiz-adv-x="682" d="M318 -96Q399 -101 439 -137T480 -232Q480 -329 405 -377T177 -425Q152 -425 126 -424T71 -418L92 -327Q140 -333 180 -333Q271 -333 308 -311T346 -244Q346 -172 227 -172Q205 -172 191 -172T169 -174L270 0H377L318 -96Z" />
<glyph unicode="&#xb9;" horiz-adv-x="682" d="M638 670L617 563H61L81 670H292L410 1279L181 1141L207 1272L444 1409H567L423 670H638Z" />
<glyph unicode="&#xba;" horiz-adv-x="748" d="M403 651Q258 651 180 729T101 950Q101 1012 114 1078Q148 1255 249 1343T520 1432Q665 1432 743 1354T822 1133Q822 1071 809 1005Q775 828 674 740T403 651ZM513 1325Q419 1325 364 1278Q328 1246 302 1188T262
1063T248 938Q248 758 408 758Q457 758 494 770T560 808Q597 841 623 901T663 1030T678 1154Q678 1248 635 1286T513 1325Z" />
<glyph unicode="&#xbb;" horiz-adv-x="1139" d="M1049 506L640 141H482L489 180L899 547L635 919L639 940H795L1061 569L1049 506ZM571 506L165 141H5L12 180L422 547L158 919L162 940H320L583 569L571 506Z" />
<glyph unicode="&#xbc;" horiz-adv-x="1708" d="M673 670L652 563H96L116 670H327L445 1279L216 1141L242 1272L479 1409H602L458 670H673ZM1578 1409L427 0H274L1424 1409H1578ZM1437 179L1402 1H1271L1306 179H901L922 290L1406 847H1567L1459 292H1584L1562
179H1437ZM1412 714Q1385 680 1358 647T1304 579L1059 292H1328L1391 614L1412 714Z" />
<glyph unicode="&#xbd;" horiz-adv-x="1708" d="M880 670L859 563H303L323 670H534L652 1279L423 1141L449 1272L686 1409H809L665 670H880ZM1528 1409L377 0H224L1374 1409H1528ZM937 1L955 104Q984 151 1024 192Q1050 218 1077 241T1146 293T1258 363Q1392 441
1430 474Q1471 508 1492 545T1513 630Q1513 681 1479 717T1380 753Q1310 753 1260 714T1196 612L1071 627Q1100 741 1180 800T1387 859Q1506 859 1577 799T1649 644Q1649 596 1632 551Q1618 514 1593 482T1535 419Q1508 396 1458 363T1334 286Q1237 230 1187 192T1110
114H1558L1538 1H937Z" />
<glyph unicode="&#xbe;" horiz-adv-x="1708" d="M415 1049H472Q569 1049 621 1090T673 1204Q673 1252 640 1283T550 1315Q482 1315 434 1280T366 1180L241 1205Q275 1313 354 1367T560 1421Q671 1421 741 1365T811 1218Q811 1129 757 1073T593 995V993Q666 980
711 933T756 817Q756 696 667 624T433 551Q172 551 136 785L265 801Q274 729 319 692T439 655Q525 655 572 699T620 820Q620 874 576 907T455 940H394L415 1049ZM1578 1409L427 0H274L1424 1409H1578ZM1437 179L1402 1H1271L1306 179H901L922 290L1406 847H1567L1459
292H1584L1562 179H1437ZM1412 714Q1385 680 1358 647T1304 579L1059 292H1328L1391 614L1412 714Z" />
<glyph unicode="&#xbf;" horiz-adv-x="1251" d="M899 1083L860 882H665L704 1083H899ZM497 -347Q366 -347 269 -302T118 -175T65 10Q65 107 95 175T175 295Q207 329 245 356T323 408T404 454Q466 489 508 520T578 579Q607 610 621 641T643 706H818Q804 625 770
567Q747 527 718 494T637 425T496 337Q444 308 406 283T345 237Q299 195 276 146T252 31Q252 -67 325 -127T514 -187Q654 -187 745 -117T874 75L1039 35Q976 -160 841 -253T497 -347Z" />
<glyph unicode="&#xc0;" horiz-adv-x="1366" d="M365 412L125 0H-83L765 1409H982L1274 0H1079L1004 412H365ZM848 1265Q841 1252 832 1235T811 1196L449 561H976L874 1114Q867 1152 861 1190T848 1265ZM1035 1550L1032 1530H943L650 1747L655 1776H862L1035 1550Z" />
<glyph unicode="&#xc1;" horiz-adv-x="1366" d="M365 412L125 0H-83L765 1409H982L1274 0H1079L1004 412H365ZM848 1265Q841 1252 832 1235T811 1196L449 561H976L874 1114Q867 1152 861 1190T848 1265ZM1209 1747L857 1530H743L746 1550L1007 1776H1214L1209 1747Z" />
<glyph unicode="&#xc2;" horiz-adv-x="1366" d="M365 412L125 0H-83L765 1409H982L1274 0H1079L1004 412H365ZM848 1265Q841 1252 832 1235T811 1196L449 561H976L874 1114Q867 1152 861 1190T848 1265ZM904 1669L645 1530H532L536 1550L816 1790H1020L1197 1550L1193
1530H1098L906 1669H904Z" />
<glyph unicode="&#xc3;" horiz-adv-x="1366" d="M365 412L125 0H-83L765 1409H982L1274 0H1079L1004 412H365ZM848 1265Q841 1252 832 1235T811 1196L449 561H976L874 1114Q867 1152 861 1190T848 1265ZM1037 1530Q984 1530 936 1562T843 1626T756 1659Q710 1659
679 1630T623 1530H523Q570 1682 630 1740T774 1798Q829 1798 877 1766T969 1701T1054 1669Q1100 1669 1133 1701T1186 1798H1288Q1254 1692 1221 1639Q1189 1588 1144 1559T1037 1530Z" />
<glyph unicode="&#xc4;" horiz-adv-x="1366" d="M365 412L125 0H-83L765 1409H982L1274 0H1079L1004 412H365ZM848 1265Q841 1252 832 1235T811 1196L449 561H976L874 1114Q867 1152 861 1190T848 1265ZM1198 1714L1163 1530H990L1025 1714H1198ZM816 1714L781
1530H606L641 1714H816Z" />
<glyph unicode="&#xc5;" horiz-adv-x="1366" d="M347 412L107 0H-101L747 1409H964L1256 0H1061L986 412H347ZM830 1265Q823 1252 814 1235T793 1196L431 561H958L856 1114Q849 1152 843 1190T830 1265ZM1100 1546Q1100 1480 1067 1425T980 1337T858 1304Q792
1304 737 1337T649 1425T616 1546Q616 1614 649 1668T737 1755T858 1787Q924 1787 979 1755T1067 1668T1100 1546ZM992 1546Q992 1604 954 1642T858 1680Q799 1680 761 1641T723 1546Q723 1491 761 1450T858 1409Q916 1409 954 1449T992 1546Z" />
<glyph unicode="&#xc6;" horiz-adv-x="2048" d="M401 412L122 0H-81L878 1409H2067L2037 1253H1298L1210 801H1889L1859 647H1180L1085 156H1865L1834 0H863L944 412H401ZM500 561H973L1109 1262H958L822 1046L500 561Z" />
<glyph unicode="&#xc7;" horiz-adv-x="1479" d="M1215 426L1358 337Q1232 149 1072 65T700 -20Q519 -20 386 53Q253 125 183 259T113 569Q113 815 218 1014Q323 1213 509 1321T926 1430Q1143 1430 1292 1340T1490 1085L1310 1030Q1274 1142 1171 1208T916 1274Q731
1274 592 1186Q452 1098 377 937T302 566Q302 366 411 251T713 135Q861 135 989 208T1215 426ZM708 -96Q789 -101 829 -137T870 -232Q870 -329 795 -377T567 -425Q542 -425 516 -424T461 -418L482 -327Q530 -333 570 -333Q661 -333 698 -311T736 -244Q736 -172
617 -172Q595 -172 581 -172T559 -174L660 0H767L708 -96Z" />
<glyph unicode="&#xc8;" horiz-adv-x="1366" d="M1183 156L1153 0H63L336 1409H1385L1355 1253H497L409 801H1207L1177 647H379L284 156H1183ZM1029 1550L1026 1530H937L644 1747L649 1776H856L1029 1550Z" />
<glyph unicode="&#xc9;" horiz-adv-x="1366" d="M1183 156L1153 0H63L336 1409H1385L1355 1253H497L409 801H1207L1177 647H379L284 156H1183ZM1193 1747L841 1530H727L730 1550L991 1776H1198L1193 1747Z" />
<glyph unicode="&#xca;" horiz-adv-x="1366" d="M1183 156L1153 0H63L336 1409H1385L1355 1253H497L409 801H1207L1177 647H379L284 156H1183ZM913 1669L654 1530H541L545 1550L825 1790H1029L1206 1550L1202 1530H1107L915 1669H913Z" />
<glyph unicode="&#xcb;" horiz-adv-x="1366" d="M1183 156L1153 0H63L336 1409H1385L1355 1253H497L409 801H1207L1177 647H379L284 156H1183ZM1185 1714L1150 1530H977L1012 1714H1185ZM803 1714L768 1530H593L628 1714H803Z" />
<glyph unicode="&#xcc;" horiz-adv-x="569" d="M546 1409L272 0H81L355 1409H546ZM596 1550L593 1530H504L211 1747L216 1776H423L596 1550Z" />
<glyph unicode="&#xcd;" horiz-adv-x="569" d="M546 1409L272 0H81L355 1409H546ZM831 1747L479 1530H365L368 1550L629 1776H836L831 1747Z" />
<glyph unicode="&#xce;" horiz-adv-x="569" d="M546 1409L272 0H81L355 1409H546ZM757 1669L498 1530H385L389 1550L669 1790H873L1050 1550L1046 1530H951L759 1669H757Z" />
<glyph unicode="&#xcf;" horiz-adv-x="569" d="M546 1409L272 0H81L355 1409H546ZM1035 1714L1000 1530H827L862 1714H1035ZM653 1714L618 1530H443L478 1714H653Z" />
<glyph unicode="&#xd0;" horiz-adv-x="1479" d="M764 1409Q972 1409 1122 1335T1352 1122T1433 791Q1433 558 1335 379Q1236 201 1046 101T612 0H63L188 647H34L64 801H218L336 1409H764ZM283 153H587Q783 153 931 231Q1080 308 1159 453T1239 793Q1239 1012 1113
1134T760 1256H498L409 801H815L785 647H379L283 153Z" />
<glyph unicode="&#xd1;" horiz-adv-x="1479" d="M414 943L233 0H63L336 1409H548L1082 194Q1095 289 1106 360T1127 478L1308 1409H1480L1207 0H987L456 1210Q445 1125 435 1058T414 943ZM1085 1530Q1032 1530 984 1562T891 1626T804 1659Q758 1659 727 1630T671
1530H571Q618 1682 678 1740T822 1798Q877 1798 925 1766T1017 1701T1102 1669Q1148 1669 1181 1701T1234 1798H1336Q1302 1692 1269 1639Q1237 1588 1192 1559T1085 1530Z" />
<glyph unicode="&#xd2;" horiz-adv-x="1593" d="M938 1430Q1123 1430 1257 1359T1463 1158T1536 851Q1532 585 1424 388Q1317 192 1131 86T709 -20Q508 -20 369 61Q244 132 178 263T111 573Q111 813 217 1013Q322 1213 511 1321T938 1430ZM929 1276Q730 1276 590
1187Q497 1128 433 1027T336 805T302 563Q302 354 408 245T718 135Q915 135 1054 222Q1146 280 1211 377T1310 597T1345 847Q1345 1054 1237 1165T929 1276ZM1062 1550L1059 1530H970L677 1747L682 1776H889L1062 1550Z" />
<glyph unicode="&#xd3;" horiz-adv-x="1593" d="M938 1430Q1123 1430 1257 1359T1463 1158T1536 851Q1532 585 1424 388Q1317 192 1131 86T709 -20Q508 -20 369 61Q244 132 178 263T111 573Q111 813 217 1013Q322 1213 511 1321T938 1430ZM929 1276Q730 1276 590
1187Q497 1128 433 1027T336 805T302 563Q302 354 408 245T718 135Q915 135 1054 222Q1146 280 1211 377T1310 597T1345 847Q1345 1054 1237 1165T929 1276ZM1283 1747L931 1530H817L820 1550L1081 1776H1288L1283 1747Z" />
<glyph unicode="&#xd4;" horiz-adv-x="1593" d="M938 1430Q1123 1430 1257 1359T1463 1158T1536 851Q1532 585 1424 388Q1317 192 1131 86T709 -20Q508 -20 369 61Q244 132 178 263T111 573Q111 813 217 1013Q322 1213 511 1321T938 1430ZM929 1276Q730 1276 590
1187Q497 1128 433 1027T336 805T302 563Q302 354 408 245T718 135Q915 135 1054 222Q1146 280 1211 377T1310 597T1345 847Q1345 1054 1237 1165T929 1276ZM972 1669L713 1530H600L604 1550L884 1790H1088L1265 1550L1261 1530H1166L974 1669H972Z" />
<glyph unicode="&#xd5;" horiz-adv-x="1593" d="M938 1430Q1123 1430 1257 1359T1463 1158T1536 851Q1532 585 1424 388Q1317 192 1131 86T709 -20Q508 -20 369 61Q244 132 178 263T111 573Q111 813 217 1013Q322 1213 511 1321T938 1430ZM929 1276Q730 1276 590
1187Q497 1128 433 1027T336 805T302 563Q302 354 408 245T718 135Q915 135 1054 222Q1146 280 1211 377T1310 597T1345 847Q1345 1054 1237 1165T929 1276ZM1136 1530Q1083 1530 1035 1562T942 1626T855 1659Q809 1659 778 1630T722 1530H622Q669 1682 729 1740T873
1798Q928 1798 976 1766T1068 1701T1153 1669Q1199 1669 1232 1701T1285 1798H1387Q1353 1692 1320 1639Q1288 1588 1243 1559T1136 1530Z" />
<glyph unicode="&#xd6;" horiz-adv-x="1593" d="M938 1430Q1123 1430 1257 1359T1463 1158T1536 851Q1532 585 1424 388Q1317 192 1131 86T709 -20Q508 -20 369 61Q244 132 178 263T111 573Q111 813 217 1013Q322 1213 511 1321T938 1430ZM929 1276Q730 1276 590
1187Q497 1128 433 1027T336 805T302 563Q302 354 408 245T718 135Q915 135 1054 222Q1146 280 1211 377T1310 597T1345 847Q1345 1054 1237 1165T929 1276ZM1256 1714L1221 1530H1048L1083 1714H1256ZM874 1714L839 1530H664L699 1714H874Z" />
<glyph unicode="&#xd7;" horiz-adv-x="1196" d="M630 580L274 225L172 330L526 684L174 1036L278 1139L628 786L978 1137L1083 1032L733 684L1085 332L983 227L630 580Z" />
<glyph unicode="&#xd8;" horiz-adv-x="1593" d="M1423 1205Q1526 1060 1526 851Q1522 585 1414 388Q1307 192 1121 86T699 -20Q446 -20 294 104L133 -53H-56L204 201Q101 349 101 573Q101 813 207 1013Q312 1213 501 1321T928 1430Q1177 1430 1332 1303L1499 1466H1691L1423
1205ZM919 1276Q720 1276 580 1187Q487 1128 423 1027T326 805T292 563Q292 425 338 332L1208 1182Q1099 1276 919 1276ZM1335 847Q1335 981 1289 1074L419 226Q523 135 708 135Q905 135 1044 222Q1136 280 1201 377T1300 597T1335 847Z" />
<glyph unicode="&#xd9;" horiz-adv-x="1479" d="M654 -20Q421 -20 287 100T153 431Q153 475 160 536T176 635L326 1409H517L355 566Q338 476 338 423Q338 287 425 211T670 135Q862 135 977 236T1131 541L1299 1409H1489L1319 530Q1265 257 1097 119T654 -20ZM1074
1550L1071 1530H982L689 1747L694 1776H901L1074 1550Z" />
<glyph unicode="&#xda;" horiz-adv-x="1479" d="M654 -20Q421 -20 287 100T153 431Q153 475 160 536T176 635L326 1409H517L355 566Q338 476 338 423Q338 287 425 211T670 135Q862 135 977 236T1131 541L1299 1409H1489L1319 530Q1265 257 1097 119T654 -20ZM1242
1747L890 1530H776L779 1550L1040 1776H1247L1242 1747Z" />
<glyph unicode="&#xdb;" horiz-adv-x="1479" d="M654 -20Q421 -20 287 100T153 431Q153 475 160 536T176 635L326 1409H517L355 566Q338 476 338 423Q338 287 425 211T670 135Q862 135 977 236T1131 541L1299 1409H1489L1319 530Q1265 257 1097 119T654 -20ZM956
1669L697 1530H584L588 1550L868 1790H1072L1249 1550L1245 1530H1150L958 1669H956Z" />
<glyph unicode="&#xdc;" horiz-adv-x="1479" d="M654 -20Q421 -20 287 100T153 431Q153 475 160 536T176 635L326 1409H517L355 566Q338 476 338 423Q338 287 425 211T670 135Q862 135 977 236T1131 541L1299 1409H1489L1319 530Q1265 257 1097 119T654 -20ZM1226
1714L1191 1530H1018L1053 1714H1226ZM844 1714L809 1530H634L669 1714H844Z" />
<glyph unicode="&#xdd;" horiz-adv-x="1366" d="M785 584L672 0H482L597 584L213 1409H409L715 735L1275 1409H1489L785 584ZM1168 1747L816 1530H702L705 1550L966 1776H1173L1168 1747Z" />
<glyph unicode="&#xde;" horiz-adv-x="1366" d="M314 297L254 0H63L337 1409H528L479 1157H806Q1043 1157 1175 1055T1307 768Q1307 622 1238 516T1042 354T738 297H314ZM344 448H731Q922 448 1017 526T1113 759Q1113 878 1034 941T801 1004H452L344 448Z" />
<glyph unicode="&#xdf;" horiz-adv-x="1251" d="M1123 308Q1123 149 1015 60T714 -29Q628 -29 547 -13T417 26L473 169Q531 142 592 129T719 115Q829 115 888 164T947 305Q947 361 915 412T809 529Q736 592 703 645T670 756Q670 832 708 889T823 991Q905 1039
940 1083T975 1186Q975 1255 915 1299T753 1343Q608 1343 526 1264T412 1021L214 0H34L234 1027Q281 1264 411 1374T762 1484Q939 1484 1045 1403T1152 1196Q1152 1045 997 940Q900 875 872 844Q842 813 842 777Q842 736 873 695Q889 673 916 645T983 579Q1123
448 1123 308Z" />
<glyph unicode="&#xe0;" horiz-adv-x="1139" d="M933 -10Q840 -10 798 28T755 143Q755 159 757 175T760 207H754Q671 81 582 31T367 -20Q227 -20 140 64T52 278Q52 463 184 558T607 657L839 660Q858 755 858 787Q858 878 805 921T658 965Q539 965 478 923T390
793L212 822Q257 969 368 1035T668 1102Q839 1102 938 1022T1038 807Q1038 741 1019 650L945 272Q934 222 934 184Q934 147 954 129T1015 111Q1044 111 1075 118L1061 6Q1028 -2 996 -6T933 -10ZM243 286Q243 211 291 164T417 117Q514 117 592 159Q670 200 721
267T788 411L815 536L616 532Q497 529 430 511T324 464Q287 436 265 392T243 286ZM844 1221L841 1201H753L471 1479L476 1508H683L844 1221Z" />
<glyph unicode="&#xe1;" horiz-adv-x="1139" d="M933 -10Q840 -10 798 28T755 143Q755 159 757 175T760 207H754Q671 81 582 31T367 -20Q227 -20 140 64T52 278Q52 463 184 558T607 657L839 660Q858 755 858 787Q858 878 805 921T658 965Q539 965 478 923T390
793L212 822Q257 969 368 1035T668 1102Q839 1102 938 1022T1038 807Q1038 741 1019 650L945 272Q934 222 934 184Q934 147 954 129T1015 111Q1044 111 1075 118L1061 6Q1028 -2 996 -6T933 -10ZM243 286Q243 211 291 164T417 117Q514 117 592 159Q670 200 721
267T788 411L815 536L616 532Q497 529 430 511T324 464Q287 436 265 392T243 286ZM1008 1479L634 1201H540L543 1221L796 1508H1013L1008 1479Z" />
<glyph unicode="&#xe2;" horiz-adv-x="1139" d="M933 -10Q840 -10 798 28T755 143Q755 159 757 175T760 207H754Q671 81 582 31T367 -20Q227 -20 140 64T52 278Q52 463 184 558T607 657L839 660Q858 755 858 787Q858 878 805 921T658 965Q539 965 478 923T390
793L212 822Q257 969 368 1035T668 1102Q839 1102 938 1022T1038 807Q1038 741 1019 650L945 272Q934 222 934 184Q934 147 954 129T1015 111Q1044 111 1075 118L1061 6Q1028 -2 996 -6T933 -10ZM243 286Q243 211 291 164T417 117Q514 117 592 159Q670 200 721
267T788 411L815 536L616 532Q497 529 430 511T324 464Q287 436 265 392T243 286ZM723 1370L458 1201H342L346 1221L632 1491H836L1007 1221L1003 1201H911L725 1370H723Z" />
<glyph unicode="&#xe3;" horiz-adv-x="1139" d="M933 -10Q840 -10 798 28T755 143Q755 159 757 175T760 207H754Q671 81 582 31T367 -20Q227 -20 140 64T52 278Q52 463 184 558T607 657L839 660Q858 755 858 787Q858 878 805 921T658 965Q539 965 478 923T390
793L212 822Q257 969 368 1035T668 1102Q839 1102 938 1022T1038 807Q1038 741 1019 650L945 272Q934 222 934 184Q934 147 954 129T1015 111Q1044 111 1075 118L1061 6Q1028 -2 996 -6T933 -10ZM243 286Q243 211 291 164T417 117Q514 117 592 159Q670 200 721
267T788 411L815 536L616 532Q497 529 430 511T324 464Q287 436 265 392T243 286ZM843 1201Q790 1201 742 1231T649 1290T561 1320Q511 1320 476 1290T419 1201H329Q376 1353 436 1411T580 1469Q634 1469 682 1440T775 1380T861 1350Q911 1350 946 1380T1002 1469H1094Q1060
1363 1027 1310Q995 1259 950 1230T843 1201Z" />
<glyph unicode="&#xe4;" horiz-adv-x="1139" d="M933 -10Q840 -10 798 28T755 143Q755 159 757 175T760 207H754Q671 81 582 31T367 -20Q227 -20 140 64T52 278Q52 463 184 558T607 657L839 660Q858 755 858 787Q858 878 805 921T658 965Q539 965 478 923T390
793L212 822Q257 969 368 1035T668 1102Q839 1102 938 1022T1038 807Q1038 741 1019 650L945 272Q934 222 934 184Q934 147 954 129T1015 111Q1044 111 1075 118L1061 6Q1028 -2 996 -6T933 -10ZM243 286Q243 211 291 164T417 117Q514 117 592 159Q670 200 721
267T788 411L815 536L616 532Q497 529 430 511T324 464Q287 436 265 392T243 286ZM995 1403L960 1219H787L822 1403H995ZM613 1403L578 1219H403L438 1403H613Z" />
<glyph unicode="&#xe5;" horiz-adv-x="1139" d="M933 -10Q840 -10 798 28T755 143Q755 159 757 175T760 207H754Q671 81 582 31T367 -20Q227 -20 140 64T52 278Q52 463 184 558T607 657L839 660Q858 755 858 787Q858 878 805 921T658 965Q539 965 478 923T390
793L212 822Q257 969 368 1035T668 1102Q839 1102 938 1022T1038 807Q1038 741 1019 650L945 272Q934 222 934 184Q934 147 954 129T1015 111Q1044 111 1075 118L1061 6Q1028 -2 996 -6T933 -10ZM243 286Q243 211 291 164T417 117Q514 117 592 159Q670 200 721
267T788 411L815 536L616 532Q497 529 430 511T324 464Q287 436 265 392T243 286ZM975 1410Q975 1344 942 1289T855 1201T733 1168Q667 1168 612 1201T524 1289T491 1410Q491 1478 524 1532T612 1619T733 1651Q799 1651 854 1619T942 1532T975 1410ZM867 1410Q867
1468 829 1506T733 1544Q674 1544 636 1505T598 1410Q598 1355 636 1314T733 1273Q791 1273 829 1313T867 1410Z" />
<glyph unicode="&#xe6;" horiz-adv-x="1821" d="M989 503Q983 469 980 390Q980 257 1041 186T1224 115Q1311 115 1381 160T1496 294L1634 231Q1563 99 1457 40T1202 -20Q1051 -20 956 50T826 248Q736 120 624 53Q561 16 492 -2T347 -20Q252 -20 181 18Q109 56
71 124T32 278Q32 463 167 557T601 657L839 660Q858 755 858 787Q858 965 650 965Q526 965 463 923T370 793L192 822Q239 969 354 1035T665 1102Q886 1102 990 944Q1115 1102 1335 1102Q1530 1102 1638 998T1746 708Q1746 660 1739 599T1723 503H989ZM1013 641H1563L1567
713Q1567 837 1508 903T1338 969Q1215 969 1131 884T1013 641ZM223 286Q223 209 269 163T394 117Q496 117 581 162Q667 206 724 282T797 445L814 534L608 530Q459 525 381 499Q223 446 223 286Z" />
<glyph unicode="&#xe7;" horiz-adv-x="1024" d="M469 122Q572 122 644 179T758 352L914 303Q792 -20 465 -20Q273 -20 170 89T67 395Q67 596 140 767Q212 939 331 1020T625 1102Q794 1102 892 1017T1001 784L824 759Q818 856 764 908T619 961Q472 961 392 870T271
587Q261 538 256 488T251 389Q251 122 469 122ZM452 -96Q533 -101 573 -137T614 -232Q614 -329 539 -377T311 -425Q286 -425 260 -424T205 -418L226 -327Q274 -333 314 -333Q405 -333 442 -311T480 -244Q480 -172 361 -172Q339 -172 325 -172T303 -174L404 0H511L452
-96Z" />
<glyph unicode="&#xe8;" horiz-adv-x="1139" d="M256 503Q250 469 247 390Q247 257 313 186T514 115Q611 115 690 163T813 294L951 231Q878 100 766 40T493 -20Q292 -20 181 91T69 405Q69 604 140 766Q211 925 340 1013T630 1102Q835 1102 949 999T1063 708Q1063
604 1039 503H256ZM280 641H880L884 713Q884 837 820 903T634 969Q500 969 409 884T280 641ZM801 1221L798 1201H710L428 1479L433 1508H640L801 1221Z" />
<glyph unicode="&#xe9;" horiz-adv-x="1139" d="M256 503Q250 469 247 390Q247 257 313 186T514 115Q611 115 690 163T813 294L951 231Q878 100 766 40T493 -20Q292 -20 181 91T69 405Q69 604 140 766Q211 925 340 1013T630 1102Q835 1102 949 999T1063 708Q1063
604 1039 503H256ZM280 641H880L884 713Q884 837 820 903T634 969Q500 969 409 884T280 641ZM1001 1479L627 1201H533L536 1221L789 1508H1006L1001 1479Z" />
<glyph unicode="&#xea;" horiz-adv-x="1139" d="M256 503Q250 469 247 390Q247 257 313 186T514 115Q611 115 690 163T813 294L951 231Q878 100 766 40T493 -20Q292 -20 181 91T69 405Q69 604 140 766Q211 925 340 1013T630 1102Q835 1102 949 999T1063 708Q1063
604 1039 503H256ZM280 641H880L884 713Q884 837 820 903T634 969Q500 969 409 884T280 641ZM716 1370L451 1201H335L339 1221L625 1491H829L1000 1221L996 1201H904L718 1370H716Z" />
<glyph unicode="&#xeb;" horiz-adv-x="1139" d="M256 503Q250 469 247 390Q247 257 313 186T514 115Q611 115 690 163T813 294L951 231Q878 100 766 40T493 -20Q292 -20 181 91T69 405Q69 604 140 766Q211 925 340 1013T630 1102Q835 1102 949 999T1063 708Q1063
604 1039 503H256ZM280 641H880L884 713Q884 837 820 903T634 969Q500 969 409 884T280 641ZM970 1403L935 1219H762L797 1403H970ZM588 1403L553 1219H378L413 1403H588Z" />
<glyph unicode="&#xec;" horiz-adv-x="569" d="M479 1082L268 0H89L299 1082H479ZM755 1221L752 1201H664L382 1479L387 1508H594L755 1221Z" />
<glyph unicode="&#xed;" horiz-adv-x="569" d="M479 1082L268 0H89L299 1082H479ZM730 1479L356 1201H262L265 1221L518 1508H735L730 1479Z" />
<glyph unicode="&#xee;" horiz-adv-x="569" d="M479 1082L268 0H89L299 1082H479ZM695 1370L430 1201H314L318 1221L604 1491H808L979 1221L975 1201H883L697 1370H695Z" />
<glyph unicode="&#xef;" horiz-adv-x="569" d="M479 1082L268 0H89L299 1082H479ZM978 1403L943 1219H770L805 1403H978ZM596 1403L561 1219H386L421 1403H596Z" />
<glyph unicode="&#xf0;" horiz-adv-x="1139" d="M625 1328Q529 1418 430 1484H606Q644 1465 683 1440T762 1382L1025 1484L1006 1376L837 1309Q954 1170 1004 1031T1054 728Q1054 517 990 337Q926 156 806 71T491 -15Q292 -15 180 98T67 403Q67 562 132 701Q197
838 314 908T605 979Q684 979 756 950T864 874Q845 987 801 1085T698 1249L425 1136L446 1256L625 1328ZM603 846Q484 846 407 790Q357 753 322 686T269 541T251 388Q251 258 314 188T494 118Q674 118 763 257Q793 304 814 372T847 510T859 635Q859 689 827 739Q794
788 735 817T603 846Z" />
<glyph unicode="&#xf1;" horiz-adv-x="1139" d="M332 606L214 0H34L200 851Q210 898 219 956T239 1082H409Q409 1075 404 1041T393 966T381 897H384Q467 1012 550 1056T749 1101Q897 1101 971 1028T1046 817Q1046 785 1041 744T1025 653L898 0H717L843 645Q861
734 861 795Q861 962 682 962Q598 962 527 919T405 796T332 606ZM844 1201Q791 1201 743 1231T650 1290T562 1320Q512 1320 477 1290T420 1201H330Q377 1353 437 1411T581 1469Q635 1469 683 1440T776 1380T862 1350Q912 1350 947 1380T1003 1469H1095Q1061 1363
1028 1310Q996 1259 951 1230T844 1201Z" />
<glyph unicode="&#xf2;" horiz-adv-x="1139" d="M1080 683Q1080 553 1040 413T926 175Q851 78 743 29T497 -20Q301 -20 187 98T73 419Q78 626 147 781Q217 939 341 1020T648 1101Q858 1101 969 992T1080 683ZM894 683Q894 969 646 969Q511 969 430 900Q376 854
338 774T279 599T258 416Q258 268 322 191T508 113Q611 113 673 148T783 256Q830 330 859 443T894 683ZM811 1221L808 1201H720L438 1479L443 1508H650L811 1221Z" />
<glyph unicode="&#xf3;" horiz-adv-x="1139" d="M1080 683Q1080 553 1040 413T926 175Q851 78 743 29T497 -20Q301 -20 187 98T73 419Q78 626 147 781Q217 939 341 1020T648 1101Q858 1101 969 992T1080 683ZM894 683Q894 969 646 969Q511 969 430 900Q376 854
338 774T279 599T258 416Q258 268 322 191T508 113Q611 113 673 148T783 256Q830 330 859 443T894 683ZM1001 1479L627 1201H533L536 1221L789 1508H1006L1001 1479Z" />
<glyph unicode="&#xf4;" horiz-adv-x="1139" d="M1080 683Q1080 553 1040 413T926 175Q851 78 743 29T497 -20Q301 -20 187 98T73 419Q78 626 147 781Q217 939 341 1020T648 1101Q858 1101 969 992T1080 683ZM894 683Q894 969 646 969Q511 969 430 900Q376 854
338 774T279 599T258 416Q258 268 322 191T508 113Q611 113 673 148T783 256Q830 330 859 443T894 683ZM725 1370L460 1201H344L348 1221L634 1491H838L1009 1221L1005 1201H913L727 1370H725Z" />
<glyph unicode="&#xf5;" horiz-adv-x="1139" d="M1080 683Q1080 553 1040 413T926 175Q851 78 743 29T497 -20Q301 -20 187 98T73 419Q78 626 147 781Q217 939 341 1020T648 1101Q858 1101 969 992T1080 683ZM894 683Q894 969 646 969Q511 969 430 900Q376 854
338 774T279 599T258 416Q258 268 322 191T508 113Q611 113 673 148T783 256Q830 330 859 443T894 683ZM814 1201Q761 1201 713 1231T620 1290T532 1320Q482 1320 447 1290T390 1201H300Q347 1353 407 1411T551 1469Q605 1469 653 1440T746 1380T832 1350Q882 1350
917 1380T973 1469H1065Q1031 1363 998 1310Q966 1259 921 1230T814 1201Z" />
<glyph unicode="&#xf6;" horiz-adv-x="1139" d="M1080 683Q1080 553 1040 413T926 175Q851 78 743 29T497 -20Q301 -20 187 98T73 419Q78 626 147 781Q217 939 341 1020T648 1101Q858 1101 969 992T1080 683ZM894 683Q894 969 646 969Q511 969 430 900Q376 854
338 774T279 599T258 416Q258 268 322 191T508 113Q611 113 673 148T783 256Q830 330 859 443T894 683ZM982 1403L947 1219H774L809 1403H982ZM600 1403L565 1219H390L425 1403H600Z" />
<glyph unicode="&#xf7;" horiz-adv-x="1124" d="M663 1141V958H495V1141H663ZM1077 754V608H82V754H1077ZM663 406V223H495V406H663Z" />
<glyph unicode="&#xf8;" horiz-adv-x="1251" d="M201 145Q125 254 125 419Q130 626 199 781Q269 939 393 1020T700 1101Q863 1101 967 1034L1037 1116H1204L1058 947Q1132 843 1132 683Q1132 579 1106 467Q1051 226 912 106T549 -15Q395 -15 291 56L211 -38H44L201
145ZM310 416Q310 343 325 289L865 916Q801 969 698 969Q563 969 482 900Q428 854 390 774T331 599T310 416ZM946 683Q946 747 932 800L392 173Q454 118 560 118Q697 118 774 185Q851 251 895 386T946 683Z" />
<glyph unicode="&#xf9;" horiz-adv-x="1139" d="M748 185Q665 70 582 26T383 -19Q235 -19 161 54T86 265Q86 287 88 312T95 366T107 429L234 1082H415L289 437Q271 349 271 287Q271 120 450 120Q534 120 605 163T728 287T800 476L918 1082H1098L932 231Q922 184
913 126T893 0H723Q723 8 728 42T740 117T751 185H748ZM825 1221L822 1201H734L452 1479L457 1508H664L825 1221Z" />
<glyph unicode="&#xfa;" horiz-adv-x="1139" d="M748 185Q665 70 582 26T383 -19Q235 -19 161 54T86 265Q86 287 88 312T95 366T107 429L234 1082H415L289 437Q271 349 271 287Q271 120 450 120Q534 120 605 163T728 287T800 476L918 1082H1098L932 231Q922 184
913 126T893 0H723Q723 8 728 42T740 117T751 185H748ZM1009 1479L635 1201H541L544 1221L797 1508H1014L1009 1479Z" />
<glyph unicode="&#xfb;" horiz-adv-x="1139" d="M748 185Q665 70 582 26T383 -19Q235 -19 161 54T86 265Q86 287 88 312T95 366T107 429L234 1082H415L289 437Q271 349 271 287Q271 120 450 120Q534 120 605 163T728 287T800 476L918 1082H1098L932 231Q922 184
913 126T893 0H723Q723 8 728 42T740 117T751 185H748ZM737 1370L472 1201H356L360 1221L646 1491H850L1021 1221L1017 1201H925L739 1370H737Z" />
<glyph unicode="&#xfc;" horiz-adv-x="1139" d="M748 185Q665 70 582 26T383 -19Q235 -19 161 54T86 265Q86 287 88 312T95 366T107 429L234 1082H415L289 437Q271 349 271 287Q271 120 450 120Q534 120 605 163T728 287T800 476L918 1082H1098L932 231Q922 184
913 126T893 0H723Q723 8 728 42T740 117T751 185H748ZM1002 1403L967 1219H794L829 1403H1002ZM620 1403L585 1219H410L445 1403H620Z" />
<glyph unicode="&#xfd;" horiz-adv-x="1024" d="M16 -425Q-54 -425 -116 -411L-85 -277Q-37 -285 -8 -285Q87 -285 159 -221T302 -35L329 12L112 1082H295L407 484Q415 444 422 400T435 314T445 241T449 196Q454 207 460 220T475 250L597 475L928 1082H1127L501
0Q389 -195 323 -270Q256 -348 182 -386T16 -425ZM971 1479L597 1201H503L506 1221L759 1508H976L971 1479Z" />
<glyph unicode="&#xfe;" horiz-adv-x="1139" d="M554 -20Q431 -20 354 32T244 178H239Q236 153 233 128T225 77Q221 58 218 38T210 -2L128 -425H-51L320 1484H500L417 1061Q413 1038 405 1003T383 921H387Q460 1016 541 1059T741 1102Q898 1102 985 1008T1073
748Q1073 544 1012 355Q951 165 839 73T554 -20ZM689 963Q498 963 400 801Q372 755 351 693T316 566Q295 467 295 377Q295 252 358 183T535 113Q659 113 731 189Q767 227 795 290T844 428T874 579T885 716Q885 839 838 901T689 963Z" />
<glyph unicode="&#xff;" horiz-adv-x="1024" d="M16 -425Q-54 -425 -116 -411L-85 -277Q-37 -285 -8 -285Q87 -285 159 -221T302 -35L329 12L112 1082H295L407 484Q415 444 422 400T435 314T445 241T449 196Q454 207 460 220T475 250L597 475L928 1082H1127L501
0Q389 -195 323 -270Q256 -348 182 -386T16 -425ZM946 1403L911 1219H738L773 1403H946ZM564 1403L529 1219H354L389 1403H564Z" />
<glyph unicode="&#x2013;" horiz-adv-x="1139" d="M1151 588L1124 451H-13L13 588H1151Z" />
<glyph unicode="&#x2014;" horiz-adv-x="2048" d="M2061 588L2034 451H-13L13 588H2061Z" />
<glyph unicode="&#x2018;" horiz-adv-x="455" d="M432 1147L394 952H199L227 1098Q245 1194 278 1267T368 1409H489Q428 1342 392 1277T343 1147H432Z" />
<glyph unicode="&#x2019;" horiz-adv-x="455" d="M454 1264Q436 1169 403 1095T315 952H192Q312 1090 337 1212H249L287 1409H482L454 1264Z" />
<glyph unicode="&#x201a;" horiz-adv-x="455" d="M256 52Q238 -41 206 -116T117 -260H-6Q53 -192 89 -127T139 0H51L89 197H284L256 52Z" />
<glyph unicode="&#x201c;" horiz-adv-x="682" d="M712 1147L674 952H480L508 1098Q526 1191 558 1266T647 1409H769Q709 1341 673 1275T624 1147H712ZM381 1147L343 952H148L176 1098Q194 1194 227 1267T317 1409H438Q377 1342 341 1277T292 1147H381Z" />
<glyph unicode="&#x201d;" horiz-adv-x="682" d="M730 1264Q712 1171 681 1098T590 952H469Q588 1087 614 1214H526L564 1409H758L730 1264ZM399 1264Q381 1169 348 1095T260 952H137Q256 1087 282 1214H194L232 1409H427L399 1264Z" />
<glyph unicode="&#x201e;" horiz-adv-x="682" d="M522 50Q505 -41 474 -114T382 -262H261Q321 -194 357 -128T406 0H318L356 195H550L522 50ZM191 50Q173 -43 141 -118T52 -262H-71Q-11 -194 25 -128T74 0H-14L24 195H219L191 50Z" />
<glyph unicode="&#x2022;" horiz-adv-x="717" d="M652 682Q652 604 614 541T511 439T371 401Q297 401 235 439T135 540T97 682Q97 759 134 821T234 919T371 956Q448 956 511 920T613 821T652 682Z" />
<glyph unicode="&#x2039;" horiz-adv-x="682" d="M512 161L510 141H351L86 506L98 569L506 940H663L654 900L247 528L512 161Z" />
<glyph unicode="&#x203a;" horiz-adv-x="682" d="M174 141H16L24 180L434 547L170 919L173 940H329L594 569L582 506L174 141Z" />
</font>
</defs>
</svg>
