<?xml version="1.0" standalone="no"?>
<!DOCTYPE svg PUBLIC "-//W3C//DTD SVG 1.1//EN" "http://www.w3.org/Graphics/SVG/1.1/DTD/svg11.dtd">
<svg xmlns="http://www.w3.org/2000/svg">
<defs >
<font id="Arimo" horiz-adv-x="1190" ><font-face
    font-family="Arimo"
    units-per-em="2048"
    panose-1="2 11 6 4 2 2 2 2 2 4"
    ascent="1854"
    descent="-434"
    alphabetic="0" />
<glyph unicode=" " horiz-adv-x="569" />
<glyph unicode="!" horiz-adv-x="682" d="M487 1409L455 426H225L193 1409H487ZM481 270V0H193V270H481Z" />
<glyph unicode="&quot;" horiz-adv-x="971" d="M836 1409L807 898H588L561 1409H836ZM408 1409L381 898H162L135 1409H408Z" />
<glyph unicode="#" horiz-adv-x="1139" d="M344 381L264 0H111L190 381H35V530H223L293 862H86V1010H324L408 1395H561L479 1010H786L870 1395H1026L942 1010H1106V862H909L840 530H1055V381H809L727 0H571L651 381H344ZM377 530H686L756 862H449L377 530Z" />
<glyph unicode="$" horiz-adv-x="1139" d="M520 20Q305 28 185 121T27 408L283 455Q302 342 358 290T520 227V618Q482 627 430 641T328 674T245 713Q163 763 118 840T72 1030Q72 1196 186 1287T520 1386V1520H629V1386Q752 1380 839 1348T984 1242T1075 1036L811
997Q796 1084 753 1131T629 1190V838Q652 834 697 823T817 788Q964 740 1037 647T1110 412Q1110 231 989 132T629 23V-152H520V20ZM334 1034Q334 989 350 961Q369 925 408 906T520 862V1194Q334 1181 334 1034ZM850 408Q850 458 833 489T780 541Q745 561 629 594V227Q739
235 794 280T850 408Z" />
<glyph unicode="%" horiz-adv-x="1821" d="M408 1425Q760 1425 760 977Q760 759 670 644T403 528Q229 528 140 642T51 977Q51 1204 137 1314T408 1425ZM1475 1409L552 0H346L1266 1409H1475ZM543 977Q543 1135 513 1202T408 1270Q328 1270 297 1203T266 977Q266
820 298 752T406 684Q480 684 511 752T543 977ZM1767 432Q1767 214 1677 99T1413 -16Q1237 -16 1148 98T1059 432Q1059 656 1145 768T1417 881Q1597 881 1682 768T1767 432ZM1552 432Q1552 592 1522 659T1417 727Q1337 727 1307 658T1276 432Q1276 271 1308 206T1415
141Q1488 141 1520 209T1552 432Z" />
<glyph unicode="&amp;" horiz-adv-x="1479" d="M90 385Q90 520 171 625T428 813Q391 888 373 958T354 1092Q354 1248 452 1332T731 1417Q899 1417 996 1337T1094 1120Q1094 1043 1055 981T945 866Q909 840 849 807T702 733Q802 556 946 397Q1050 556 1104 760L1313
690Q1246 460 1120 270Q1205 197 1298 197Q1364 197 1415 213V10Q1361 -12 1284 -12Q1198 -12 1112 19T954 109Q785 -20 575 -20Q344 -20 217 86T90 385ZM870 1118Q870 1175 832 1211T729 1247Q652 1247 612 1204T571 1090Q571 1004 625 897Q731 942 776 973Q821
1004 845 1039T870 1118ZM788 246Q705 338 637 432T516 623Q344 542 344 389Q344 290 409 230T586 170Q651 170 703 194T788 246Z" />
<glyph unicode="&apos;" horiz-adv-x="487" d="M381 1409L354 898H135L109 1409H381Z" />
<glyph unicode="(" horiz-adv-x="682" d="M399 -425Q295 -274 229 -126T133 184T102 531Q102 717 132 877T229 1186T399 1484H680Q522 1256 451 1030T379 530Q379 348 410 189T507 -119T680 -425H399Z" />
<glyph unicode=")" horiz-adv-x="682" d="M2 -425Q109 -269 175 -120T272 189T303 530Q303 805 231 1031T2 1484H283Q389 1333 454 1184T549 875T580 531Q580 346 550 186T454 -124T283 -425H2Z" />
<glyph unicode="*" horiz-adv-x="797" d="M731 768L547 647L401 899L252 647L66 770L256 981L6 1042L74 1239L313 1135L295 1409H510L492 1135L727 1239L795 1042L545 981L731 768Z" />
<glyph unicode="+" horiz-adv-x="1196" d="M711 569V161H485V569H86V793H485V1201H711V793H1113V569H711Z" />
<glyph unicode="," horiz-adv-x="569" d="M432 66Q432 -54 407 -146T324 -317H139Q198 -246 235 -161T272 0H143V305H432V66Z" />
<glyph unicode="-" horiz-adv-x="682" d="M600 653V409H80V653H600Z" />
<glyph unicode="." horiz-adv-x="569" d="M428 305V0H139V305H428Z" />
<glyph unicode="/" horiz-adv-x="569" d="M549 1484L263 -41H20L311 1484H549Z" />
<glyph unicode="0" horiz-adv-x="1139" d="M1055 705Q1055 348 933 164T565 -20Q323 -20 202 161T81 705Q81 1076 196 1253T573 1430Q823 1430 939 1249T1055 705ZM773 705Q773 895 756 1005T695 1163T571 1210Q486 1210 441 1163T379 1005T362 705Q362 516 379
406T441 248T567 201Q687 201 730 317T773 705Z" />
<glyph unicode="1" horiz-adv-x="1139" d="M1082 209V0H129V209H478V1170L140 959V1180L493 1409H759V209H1082Z" />
<glyph unicode="2" horiz-adv-x="1139" d="M1057 231V0H71V195Q108 276 165 353T301 509T483 671Q557 731 609 780T690 869Q720 908 735 946T750 1022Q750 1114 704 1160T565 1206Q475 1206 428 1158T366 1012L83 1028Q107 1224 229 1327T563 1430Q791 1430 913
1326T1035 1034Q1035 928 991 844T879 689Q823 628 753 573T616 466Q546 410 489 353T403 231H1057Z" />
<glyph unicode="3" horiz-adv-x="1139" d="M1065 391Q1065 193 935 85T565 -23Q338 -23 204 81T47 383L333 408Q360 205 564 205Q665 205 721 255T777 408Q777 502 709 552T507 602H409V829H501Q622 829 683 878T744 1020Q744 1107 696 1156T554 1206Q467 1206
414 1158T352 1022L71 1042Q93 1224 222 1327T559 1430Q780 1430 904 1331T1029 1055Q1029 923 952 838T728 725V721Q890 702 977 615T1065 391Z" />
<glyph unicode="4" horiz-adv-x="1139" d="M940 287V0H672V287H31V498L626 1409H940V496H1128V287H940ZM260 496H672V957Q672 1011 675 1074T681 1155Q668 1127 645 1087T587 993L260 496Z" />
<glyph unicode="5" horiz-adv-x="1139" d="M1082 469Q1082 245 943 113T560 -20Q348 -20 221 75T63 352L344 375Q366 285 422 244T563 203Q668 203 730 270T793 463Q793 574 734 640T569 707Q511 707 463 685T378 616H104L153 1409H1000V1200H408L385 844Q487
934 640 934Q774 934 873 878T1027 717T1082 469Z" />
<glyph unicode="6" horiz-adv-x="1139" d="M1065 461Q1065 236 939 108T591 -20Q342 -20 209 154T75 672Q75 1049 210 1239T598 1430Q777 1430 880 1351T1027 1106L762 1069Q725 1208 592 1208Q479 1208 415 1095T350 752Q395 827 475 867T656 907Q845 907 955
787T1065 461ZM783 453Q783 573 728 636T575 700Q482 700 426 641T370 483Q370 401 396 337T471 236T582 199Q677 199 730 266T783 453Z" />
<glyph unicode="7" horiz-adv-x="1139" d="M1049 1186Q954 1036 870 896T722 612Q659 470 623 319T586 0H293Q293 161 328 305T439 610Q489 714 571 848T788 1178H88V1409H1049V1186Z" />
<glyph unicode="8" horiz-adv-x="1139" d="M1076 397Q1076 199 945 90T571 -20Q330 -20 198 89T65 395Q65 530 143 622T352 737V741Q238 766 168 854T98 1057Q98 1230 220 1330T567 1430Q796 1430 918 1333T1041 1055Q1041 940 972 853T785 743V739Q921 717 998
628T1076 397ZM752 1040Q752 1233 567 1233Q385 1233 385 1040Q385 939 431 889T569 838Q661 838 706 885T752 1040ZM785 420Q785 530 730 585T565 641Q463 641 409 583T354 416Q354 292 408 235T573 178Q682 178 733 235T785 420Z" />
<glyph unicode="9" horiz-adv-x="1139" d="M1063 727Q1063 352 926 166T537 -20Q351 -20 246 59T96 311L360 348Q399 201 540 201Q658 201 721 314T787 649Q749 574 663 532T476 489Q352 489 261 546T121 709T71 958Q71 1180 199 1305T563 1430Q816 1430 939 1255T1063
727ZM766 924Q766 1055 709 1132T556 1210Q463 1210 410 1143T356 956Q356 839 409 769T557 698Q617 698 664 726T738 805T766 924Z" />
<glyph unicode=":" horiz-adv-x="682" d="M485 1034V752H197V1034H485ZM485 281V0H197V281H485Z" />
<glyph unicode=";" horiz-adv-x="682" d="M487 1034V752H199V1034H487ZM487 66Q487 -54 462 -146T379 -317H195Q259 -236 293 -154T328 0H199V281H487V66Z" />
<glyph unicode="&lt;" horiz-adv-x="1196" d="M1113 352V125L86 516V838L1113 1229V1001L280 676L1113 352Z" />
<glyph unicode="=" horiz-adv-x="1196" d="M1112 1065V842H85V1065H1112ZM1112 512V291H85V512H1112Z" />
<glyph unicode="&gt;" horiz-adv-x="1196" d="M1113 516L86 125V352L918 676L86 1001V1229L1113 838V516Z" />
<glyph unicode="?" horiz-adv-x="1251" d="M1133 1026Q1133 929 1090 852T927 690L851 635Q719 541 713 426H446Q450 494 474 552T543 661T655 758Q727 808 769 848T831 928T850 1014Q850 1102 793 1153T629 1204Q528 1204 460 1145T379 989L94 1001Q121 1204
261 1317T625 1430Q862 1430 997 1323T1133 1026ZM727 270V0H438V270H727Z" />
<glyph unicode="@" horiz-adv-x="1997" d="M1878 725Q1878 543 1815 393Q1751 243 1639 159T1397 74Q1305 74 1256 119T1206 246Q1206 265 1207 281T1212 313H1206Q1156 208 1058 141T856 74Q699 74 613 175T526 459Q526 621 591 765Q656 908 770 989T1026 1071Q1221
1071 1290 897H1296L1335 1049H1491L1374 543Q1337 373 1337 303Q1337 253 1360 232T1415 211Q1495 211 1568 281Q1641 350 1683 466T1726 723Q1726 899 1650 1033Q1574 1167 1430 1240T1094 1313Q854 1313 671 1208Q488 1103 384 905T279 461Q279 267 359 119Q439
-29 582 -104T920 -180Q1067 -180 1214 -141T1509 -25L1571 -147Q1403 -242 1243 -283T913 -324Q677 -324 498 -228Q318 -133 218 47T117 461Q117 744 244 973Q370 1202 593 1328T1092 1454Q1335 1454 1513 1364Q1691 1273 1784 1108T1878 725ZM1231 721Q1231 816
1172 876T1018 936Q924 936 850 874Q775 811 734 697T692 461Q692 347 740 281T889 215Q955 215 1017 257T1129 379Q1162 432 1184 496T1219 621T1231 721Z" />
<glyph unicode="A" horiz-adv-x="1479" d="M471 360L346 0H51L565 1409H913L1425 0H1133L1008 360H471ZM739 1192Q729 1152 711 1096T685 1017L537 582H942L790 1026Q776 1067 764 1109T739 1192Z" />
<glyph unicode="B" horiz-adv-x="1479" d="M1386 402Q1386 210 1242 105T842 0H137V1409H782Q1040 1409 1172 1320T1305 1055Q1305 935 1239 853T1036 741Q1207 721 1296 634T1386 402ZM1008 1015Q1008 1110 948 1150T768 1190H432V841H770Q895 841 951 884T1008
1015ZM1090 425Q1090 623 806 623H432V219H817Q959 219 1024 270T1090 425Z" />
<glyph unicode="C" horiz-adv-x="1479" d="M795 212Q1063 212 1166 480L1423 383Q1340 179 1180 80T795 -20Q569 -20 410 66T168 317T84 711Q84 943 164 1103T400 1346T782 1430Q1030 1430 1186 1331T1405 1038L1145 967Q1112 1073 1016 1135T788 1198Q588 1198
485 1074T381 711Q381 549 428 438T568 270T795 212Z" />
<glyph unicode="D" horiz-adv-x="1479" d="M1393 715Q1393 489 1306 329T1064 85T707 0H137V1409H647Q1003 1409 1198 1230T1393 715ZM1096 715Q1096 942 978 1061T641 1181H432V228H682Q809 228 901 287T1045 456T1096 715Z" />
<glyph unicode="E" horiz-adv-x="1366" d="M1286 228V0H137V1409H1245V1181H432V827H1184V599H432V228H1286Z" />
<glyph unicode="F" horiz-adv-x="1251" d="M432 517V0H137V1409H1176V1181H432V745H1153V517H432Z" />
<glyph unicode="G" horiz-adv-x="1593" d="M806 211Q921 211 1029 244T1196 330V525H852V743H1466V225Q1354 110 1175 45T798 -20Q569 -20 410 65T167 314T84 711Q84 1059 270 1244T805 1430Q1053 1430 1211 1339T1436 1063L1164 981Q1120 1088 1026 1143T805
1198Q597 1198 489 1072T381 711Q381 472 492 342T806 211Z" />
<glyph unicode="H" horiz-adv-x="1479" d="M432 604V0H137V1409H432V848H1046V1409H1341V0H1046V604H432Z" />
<glyph unicode="I" horiz-adv-x="569" d="M432 1409V0H137V1409H432Z" />
<glyph unicode="J" horiz-adv-x="1139" d="M524 -20Q305 -20 188 75T31 382L324 425Q342 316 391 264T526 211Q614 211 659 270T705 439V1178H424V1409H999V446Q999 226 874 103T524 -20Z" />
<glyph unicode="K" horiz-adv-x="1479" d="M432 514V0H137V1409H432V770L1067 1409H1411L809 813L1460 0H1112L606 647L432 514Z" />
<glyph unicode="L" horiz-adv-x="1251" d="M1188 228V0H137V1409H432V228H1188Z" />
<glyph unicode="M" horiz-adv-x="1706" d="M399 854V0H137V1409H532L784 621Q801 555 819 489T854 356Q865 394 875 431T895 507T917 582L1176 1409H1569V0H1307V854Q1307 883 1309 970T1317 1161Q1282 1027 1256 933T1212 786L958 0H748L494 786L387 1161Q393
1045 396 969T399 854Z" />
<glyph unicode="N" horiz-adv-x="1479" d="M399 831V0H137V1409H474L1097 315Q1079 467 1079 590V1409H1341V0H995L381 1085Q390 1006 394 943T399 831Z" />
<glyph unicode="O" horiz-adv-x="1593" d="M1507 711Q1507 491 1419 327T1170 71T793 -20Q572 -20 413 68T169 321T84 711Q84 937 168 1098T412 1344T795 1430Q1019 1430 1178 1344T1422 1096T1507 711ZM1206 711Q1206 939 1098 1068T795 1198Q597 1198 489 1070T381
711Q381 557 431 445T573 273T793 212Q991 212 1098 342T1206 711Z" />
<glyph unicode="P" horiz-adv-x="1366" d="M1296 963Q1296 826 1234 721T1056 556T782 496H432V0H137V1409H770Q1023 1409 1159 1293T1296 963ZM999 958Q999 1180 737 1180H432V723H745Q867 723 933 783T999 958Z" />
<glyph unicode="Q" horiz-adv-x="1593" d="M1507 711Q1507 523 1445 376T1265 134T983 4Q1017 -95 1078 -139T1251 -183Q1313 -183 1370 -173L1368 -375Q1244 -403 1126 -403Q963 -403 856 -312T684 -10Q494 8 360 100T155 347T84 711Q84 937 168 1098T412 1344T795
1430Q1019 1430 1178 1344T1422 1096T1507 711ZM1206 711Q1206 939 1098 1068T795 1198Q597 1198 489 1070T381 711Q381 557 430 445T572 272T793 211Q991 211 1098 341T1206 711Z" />
<glyph unicode="R" horiz-adv-x="1479" d="M432 535V0H137V1409H841Q1093 1409 1230 1301T1367 989Q1367 841 1283 734T1056 592L1437 0H1105L778 535H432ZM1070 977Q1070 1078 1005 1129T810 1180H432V764H818Q942 764 1006 820T1070 977Z" />
<glyph unicode="S" horiz-adv-x="1366" d="M1286 406Q1286 199 1133 90T682 -20Q147 -20 59 367L344 414Q373 302 457 252T690 201Q845 201 922 248T999 389Q999 449 964 488T864 553Q832 566 770 581T616 616Q510 641 450 658T354 692T284 729Q209 774 167 849T125
1036Q125 1227 268 1328T686 1430Q948 1430 1079 1348T1249 1077L963 1038Q941 1129 874 1175T680 1221Q546 1221 479 1179T412 1053Q412 998 440 963T525 903Q578 879 752 842Q853 820 926 801T1043 763Q1087 744 1121 723T1181 678Q1232 629 1259 562T1286 406Z"
/>
<glyph unicode="T" horiz-adv-x="1251" d="M773 1181V0H478V1181H23V1409H1229V1181H773Z" />
<glyph unicode="U" horiz-adv-x="1479" d="M723 -20Q529 -20 395 43T192 229T123 528V1409H418V551Q418 384 497 298T731 211Q889 211 974 301T1059 561V1409H1354V543Q1354 365 1280 239T1064 47T723 -20Z" />
<glyph unicode="V" horiz-adv-x="1366" d="M1352 1409L834 0H535L14 1409H322L612 504Q626 460 644 394T686 238Q719 363 733 419T758 504L1047 1409H1352Z" />
<glyph unicode="W" horiz-adv-x="1933" d="M909 834L715 0H365L2 1409H301L497 546Q510 491 525 419T551 279Q561 326 569 370T587 458T606 545L805 1409H1135L1332 576Q1342 534 1356 454T1384 279Q1397 337 1407 381T1428 470T1451 572L1632 1409H1931L1567
0H1217L1026 815Q1009 887 994 962T967 1116Q959 1073 947 1015T925 907T909 834Z" />
<glyph unicode="X" horiz-adv-x="1366" d="M684 561L330 0H18L506 741L59 1409H371L684 911L997 1409H1307L879 741L1348 0H1038L684 561Z" />
<glyph unicode="Y" horiz-adv-x="1366" d="M831 578V0H537V578L35 1409H344L682 813L1024 1409H1333L831 578Z" />
<glyph unicode="Z" horiz-adv-x="1251" d="M1192 231V0H61V209L823 1178H137V1409H1151V1204L389 231H1192Z" />
<glyph unicode="[" horiz-adv-x="682" d="M657 -234V-425H115V1484H657V1294H381V-234H657Z" />
<glyph unicode="\" horiz-adv-x="569" d="M259 1485L550 -41H307L21 1485H259Z" />
<glyph unicode="]" horiz-adv-x="682" d="M567 1484V-425H25V-234H303V1294H25V1484H567Z" />
<glyph unicode="^" horiz-adv-x="1196" d="M45 514L436 1409H758L1151 514H922L596 1266L272 514H45Z" />
<glyph unicode="_" horiz-adv-x="1139" d="M1157 -172V-250H-20V-172H1157Z" />
<glyph unicode="`" horiz-adv-x="682" d="M575 1214V1183H406L66 1459V1502H324L575 1214Z" />
<glyph unicode="a" horiz-adv-x="1139" d="M393 -20Q236 -20 148 65T60 306Q60 474 169 561T487 652L720 656V711Q720 817 683 868T562 920Q484 920 448 885T402 767L109 781Q164 1102 574 1102Q779 1102 890 1001T1001 714V320Q1001 229 1021 195T1090 160Q1122
160 1152 166V14Q1100 1 1063 -5T972 -12Q866 -12 816 40T755 193H749Q690 87 601 34T393 -20ZM720 501L576 499Q477 494 437 478Q396 460 375 424T353 328Q353 251 388 214T483 176Q549 176 604 212Q658 248 689 311T720 446V501Z" />
<glyph unicode="b" horiz-adv-x="1251" d="M1167 545Q1167 277 1060 129T752 -20Q637 -20 553 30T424 174H422Q422 151 420 114T415 45T408 0H135Q139 47 141 108T143 247V1484H424V1070Q424 1026 423 982T420 894H424Q471 998 558 1050T770 1102Q962 1102 1064
957T1167 545ZM874 545Q874 729 820 818T653 907Q539 907 480 812T420 536Q420 364 478 268T651 172Q763 172 818 265T874 545Z" />
<glyph unicode="c" horiz-adv-x="1139" d="M594 -20Q348 -20 214 126T80 535Q80 803 215 952T598 1102Q789 1102 914 1006T1071 741L788 727Q776 810 728 859T592 909Q483 909 429 819T375 546Q375 359 430 266T596 172Q676 172 730 222T797 373L1079 360Q1064
246 999 161T829 28T594 -20Z" />
<glyph unicode="d" horiz-adv-x="1251" d="M844 0Q842 10 838 42T832 112T829 176H825Q779 78 693 29T479 -20Q290 -20 187 127T84 540Q84 809 192 955T500 1102Q615 1102 698 1054T827 911H829L827 1089V1484H1108V236Q1108 186 1110 127T1116 0H844ZM377 540Q377
356 432 264T598 172Q709 172 770 269T831 547Q831 722 773 816T600 911Q487 911 432 820T377 540Z" />
<glyph unicode="e" horiz-adv-x="1139" d="M375 487Q375 329 433 249T600 168Q674 168 721 200T788 297L1053 274Q938 -20 586 -20Q342 -20 211 124T80 546Q80 814 213 958T590 1102Q823 1102 946 948T1069 495V487H375ZM797 663Q789 794 734 859T586 925Q487
925 434 856T377 663H797Z" />
<glyph unicode="f" horiz-adv-x="682" d="M473 892V0H193V892H35V1082H193V1195Q193 1342 271 1413T508 1484Q590 1484 686 1468V1287Q646 1296 604 1296Q532 1296 503 1268T473 1167V1082H686V892H473Z" />
<glyph unicode="g" horiz-adv-x="1251" d="M596 -434Q398 -434 278 -359T129 -143L410 -110Q425 -175 474 -212T604 -249Q721 -249 775 -177T829 37L831 201H829Q783 101 696 52T481 2Q292 2 188 144T84 550Q84 815 191 959T502 1103Q620 1103 701 1055T829 908H834Q834
932 836 968T841 1037T848 1082H1114Q1108 974 1108 832V33Q1108 -198 977 -316T596 -434ZM831 556Q831 723 772 816T602 910Q490 910 434 820T377 550Q377 374 432 286T600 197Q712 197 771 290T831 556Z" />
<glyph unicode="h" horiz-adv-x="1251" d="M420 866Q477 990 563 1046T768 1102Q940 1102 1032 996T1124 686V0H844V606Q844 749 796 820T651 891Q549 891 487 804T424 579V0H143V1484H424V1079Q424 1043 423 1007T421 936T416 866H420Z" />
<glyph unicode="i" horiz-adv-x="569" d="M424 1484V1277H143V1484H424ZM424 1082V0H143V1082H424Z" />
<glyph unicode="j" horiz-adv-x="569" d="M425 1484V1277H144V1484H425ZM138 -425Q39 -425 -32 -416V-218Q-19 -219 -7 -220T19 -222Q91 -222 117 -191T144 -60V1082H425V-128Q425 -271 353 -348T138 -425Z" />
<glyph unicode="k" horiz-adv-x="1139" d="M424 406V0H143V1484H424V634L810 1082H1112L732 660L1141 0H834L545 490L424 406Z" />
<glyph unicode="l" horiz-adv-x="569" d="M424 1484V0H143V1484H424Z" />
<glyph unicode="m" horiz-adv-x="1821" d="M424 580V0H143V840Q143 927 141 982T135 1082H403Q405 1070 408 1026T413 935T416 867H420Q472 991 549 1047T735 1103Q859 1103 934 1044T1036 867H1042Q1097 993 1174 1048T1370 1103Q1528 1103 1611 996T1694 687V0H1415V607Q1415
750 1374 821T1251 892Q1169 892 1114 813T1059 593V0H780V607Q780 750 739 821T616 892Q531 892 478 805T424 580Z" />
<glyph unicode="n" horiz-adv-x="1251" d="M424 580V0H143V840Q143 927 141 982T135 1082H403Q405 1070 408 1026T413 935T416 867H420Q477 991 563 1047T768 1103Q940 1103 1032 997T1124 687V0H844V607Q844 750 796 821T651 892Q549 892 487 805T424 580Z" />
<glyph unicode="o" horiz-adv-x="1251" d="M1171 542Q1171 279 1025 130T621 -20Q368 -20 224 130T80 542Q80 803 224 952T627 1102Q892 1102 1031 958T1171 542ZM877 542Q877 735 814 822T631 909Q503 909 439 818T375 542Q375 361 437 267T618 172Q748 172 812
264T877 542Z" />
<glyph unicode="p" horiz-adv-x="1251" d="M1167 546Q1167 275 1059 128T752 -20Q517 -20 424 172H418Q424 142 424 -10V-425H143V833Q143 910 141 972T135 1082H408Q412 1070 414 1042T418 977T420 906H424Q471 1006 558 1055T770 1105Q959 1105 1063 960T1167
546ZM874 546Q874 728 819 819T651 910Q539 910 480 812T420 538Q420 363 479 268T649 172Q762 172 818 265T874 546Z" />
<glyph unicode="q" horiz-adv-x="1251" d="M84 540Q84 808 193 955T502 1103Q620 1103 701 1055T829 908Q829 939 831 975T838 1042T844 1082H1114Q1111 1028 1110 966T1108 833V-425H829V25L834 180H832Q786 80 698 30T479 -20Q290 -20 187 127T84 540ZM831 546Q831
719 773 814T602 910Q490 910 434 818T377 540Q377 356 432 264T600 172Q710 172 770 269T831 546Z" />
<glyph unicode="r" horiz-adv-x="797" d="M424 531V0H143V828Q143 917 141 976T135 1082H403Q405 1073 407 1042T411 973T414 900T416 851H420Q460 963 493 1012Q525 1059 569 1081T679 1103Q733 1103 766 1088V853Q699 868 646 868Q541 868 483 783T424 531Z" />
<glyph unicode="s" horiz-adv-x="1139" d="M1055 316Q1055 159 927 70T571 -20Q348 -20 230 50T72 270L319 307Q340 230 391 198T571 166Q689 166 743 196T797 290Q797 342 754 372T606 424Q527 440 465 455T358 484T285 512Q202 553 159 617T115 775Q115 930
234 1016T573 1103Q766 1103 883 1028T1030 811L781 785Q769 851 722 883T573 916Q473 916 423 891T373 805Q373 758 411 731T541 685Q668 659 766 632T925 566Q984 528 1019 469T1055 316Z" />
<glyph unicode="t" horiz-adv-x="682" d="M657 16Q555 -18 420 -18Q296 -18 229 49T162 254V892H25V1082H176L264 1336H440V1082H645V892H440V330Q440 251 470 214T563 176Q593 176 657 190V16Z" />
<glyph unicode="u" horiz-adv-x="1251" d="M831 215Q775 92 689 36T483 -20Q311 -20 219 85T127 395V1082H408V475Q408 333 456 262T600 190Q702 190 764 277T827 502V1082H1108V242Q1108 173 1110 113T1116 0H848Q842 72 839 126T836 215H831Z" />
<glyph unicode="v" horiz-adv-x="1139" d="M1130 1082L731 0H395L8 1082H305L494 477Q502 452 519 390T565 227Q569 241 581 283T609 375T635 459L836 1082H1130Z" />
<glyph unicode="w" horiz-adv-x="1593" d="M745 658L571 0H274L-6 1082H258L396 442Q406 396 416 349T436 255Q446 303 454 351T475 446L645 1082H946L1112 446Q1119 420 1129 373T1153 255Q1164 303 1174 350T1195 446L1337 1082H1597L1313 0H1016L844 660Q838
683 826 738T797 882Q784 826 772 770T745 658Z" />
<glyph unicode="x" horiz-adv-x="1139" d="M567 392L313 0H14L410 559L33 1082H336L567 728L797 1082H1102L725 562L1124 0H819L567 392Z" />
<glyph unicode="y" horiz-adv-x="1139" d="M283 -425Q180 -425 106 -412V-212Q162 -220 203 -220Q301 -220 349 -167T444 11L16 1082H313L483 575Q503 520 528 437T584 241Q607 333 628 411T674 571L834 1082H1128L700 -57Q674 -126 645 -179T586 -273Q525 -356
453 -390T283 -425Z" />
<glyph unicode="z" horiz-adv-x="1024" d="M950 205V0H82V199L591 879H123V1082H901V881L395 205H950Z" />
<glyph unicode="{" horiz-adv-x="797" d="M557 -425Q423 -425 343 -347T262 -126V202Q262 316 207 372T33 431V626Q154 631 208 687T262 857V1185Q262 1331 340 1407T557 1484H754V1294H696Q605 1294 565 1242T524 1085V784Q524 689 467 620T317 532V528Q412 506
468 438T524 276V-25Q524 -131 564 -182T696 -234H754V-425H557Z" />
<glyph unicode="|" horiz-adv-x="573" d="M418 1484V-455H156V1484H418Z" />
<glyph unicode="}" horiz-adv-x="797" d="M43 -234H100Q193 -234 232 -183T272 -25V276Q272 368 328 437T479 528V532Q388 551 330 619T272 784V1085Q272 1190 233 1242T100 1294H43V1484H240Q378 1484 456 1408T535 1185V857Q535 745 590 688T766 626V431Q645
429 590 371T535 202V-126Q535 -267 455 -346T240 -425H43V-234Z" />
<glyph unicode="~" horiz-adv-x="1196" d="M852 516Q777 516 705 537T557 584Q421 631 336 631Q265 631 206 610T81 543V756Q194 840 352 840Q456 840 594 793Q660 770 705 756T776 735Q801 729 825 726T871 723Q1004 723 1119 815V596Q1055 552 997 534T852 516Z" />
<glyph unicode="&#xa0;" horiz-adv-x="569" />
<glyph unicode="&#xa1;" horiz-adv-x="682" d="M488 1082V812H200V1082H488ZM194 -327L226 654H456L488 -327H194Z" />
<glyph unicode="&#xa2;" horiz-adv-x="1139" d="M588 340Q676 340 735 394T809 549L1092 537Q1070 384 958 283T668 160V-31H506V158Q291 179 171 315T51 686Q51 918 168 1059T506 1225V1409H668V1225Q837 1206 946 1113T1083 868L801 854Q786 945 730 994T586
1044Q462 1044 398 952T334 696Q334 522 400 431T588 340Z" />
<glyph unicode="&#xa3;" horiz-adv-x="1139" d="M1118 363Q1087 191 982 96T726 0H32V205Q134 263 171 335T209 512V604H21V774H199V1022Q199 1223 306 1326T625 1430Q794 1430 891 1361T1032 1139L799 1092Q778 1169 737 1204T630 1239Q539 1239 499 1182T459
999V774H745V604H459V514Q459 411 418 338T277 209H657Q761 209 814 258T885 402L1118 363Z" />
<glyph unicode="&#xa4;" horiz-adv-x="1139" d="M134 684Q134 805 194 905L61 1038L218 1194L349 1061Q450 1120 569 1120Q690 1120 788 1061L923 1196L1081 1038L945 903Q1005 804 1005 684Q1005 565 947 467L1081 334L923 174L790 309Q689 250 569 250Q447 250
349 307L214 170L57 328L192 465Q134 563 134 684ZM360 686Q360 629 388 582T463 506T569 477Q626 477 673 505T748 582T777 686Q777 744 749 791T674 866T569 895Q511 895 464 867T389 792T360 686Z" />
<glyph unicode="&#xa5;" horiz-adv-x="1139" d="M704 236V0H432V236H96V383H432L434 545H96V691H372L8 1409H297L567 813L841 1409H1130L766 691H1042V545H704V383H1042V236H704Z" />
<glyph unicode="&#xa6;" horiz-adv-x="573" d="M418 1454V676H156V1454H418ZM418 324V-455H156V324H418Z" />
<glyph unicode="&#xa7;" horiz-adv-x="1139" d="M575 1427Q769 1427 886 1357T1031 1153L792 1128Q779 1190 722 1223T575 1257Q463 1257 411 1228T358 1133Q358 1092 385 1064T462 1014Q512 992 642 963Q806 926 891 884Q971 843 1013 782T1056 634Q1056 541
1001 470T859 371Q950 331 995 268T1040 115Q1040 -52 915 -140T556 -229Q333 -229 213 -160T53 59L290 96Q310 16 371 -21T556 -59Q678 -59 741 -27T804 86Q804 134 780 164T705 217Q653 240 468 283Q262 332 177 410T91 600Q91 693 146 757T304 856Q214 894 165
962T116 1114Q116 1263 233 1345T575 1427ZM818 600Q818 671 759 709Q698 747 526 780Q429 769 381 731T333 627Q333 586 360 559T437 510Q484 490 623 458Q721 463 769 498T818 600Z" />
<glyph unicode="&#xa8;" horiz-adv-x="682" d="M667 1418V1199H450V1418H667ZM230 1418V1199H16V1418H230Z" />
<glyph unicode="&#xa9;" horiz-adv-x="1509" d="M1478 707Q1478 514 1382 346Q1285 177 1117 81T755 -16Q559 -16 389 85Q220 186 126 352T32 707Q32 901 129 1068Q226 1236 394 1333T755 1430Q949 1430 1118 1333Q1286 1236 1382 1069T1478 707ZM1366 707Q1366
871 1284 1011Q1202 1151 1060 1233T755 1315Q598 1315 458 1237Q318 1159 233 1018T147 707Q147 544 229 402Q310 260 450 178T755 96Q919 96 1061 178Q1203 260 1284 402T1366 707ZM544 709Q544 574 603 500T768 426Q906 426 964 569L1124 522Q1066 397 979 341T768
285Q575 285 470 396T364 709Q364 912 466 1018T759 1124Q1018 1124 1112 895L956 854Q930 915 882 949T764 983Q655 983 600 913T544 709Z" />
<glyph unicode="&#xaa;" horiz-adv-x="758" d="M257 725Q160 725 103 777T45 927Q45 1133 329 1138L476 1140V1182Q476 1241 450 1271T372 1301Q321 1301 293 1278T260 1207L70 1216Q88 1314 166 1366T371 1419Q509 1419 583 1358T658 1184V947Q658 899 667 874T709
850Q721 851 733 852T758 855V746Q694 728 639 728Q568 728 528 764T482 862H479Q407 725 257 725ZM328 856Q389 856 432 904T476 1017V1044L384 1042Q296 1039 265 1015T234 941Q234 856 328 856Z" />
<glyph unicode="&#xab;" horiz-adv-x="1139" d="M1047 176V141H807L551 502V573L807 940H1045V903L791 537L1047 176ZM588 176V141H350L92 502V573L350 940H586V903L332 537L588 176Z" />
<glyph unicode="&#xac;" horiz-adv-x="1196" d="M1111 793V141H887V569H84V793H1111Z" />
<glyph unicode="&#xad;" horiz-adv-x="682" d="M600 653V409H80V653H600Z" />
<glyph unicode="&#xae;" horiz-adv-x="1509" d="M1478 707Q1478 514 1382 346Q1285 177 1117 81T755 -16Q559 -16 389 85Q220 186 126 352T32 707Q32 901 129 1068Q226 1236 394 1333T755 1430Q949 1430 1118 1333Q1286 1236 1382 1069T1478 707ZM1366 707Q1366
871 1284 1011Q1202 1151 1060 1233T755 1315Q598 1315 458 1237Q318 1159 233 1018T147 707Q147 544 229 402Q310 260 450 178T755 96Q919 96 1061 178Q1203 260 1284 402T1366 707ZM628 610V297H450V1112H780Q933 1112 1009 1048T1085 870Q1085 776 1037 717T911
633L1124 297H923L745 610H628ZM905 868Q905 925 868 955T761 985H628V739H772Q838 739 871 774T905 868Z" />
<glyph unicode="&#xaf;" horiz-adv-x="1131" d="M1148 1546V1452H-17V1546H1148Z" />
<glyph unicode="&#xb0;" horiz-adv-x="819" d="M731 1113Q731 1027 688 955T573 839T410 795Q322 795 250 837T134 950T90 1110Q90 1197 133 1268T249 1382T410 1425Q500 1425 572 1383T688 1271T731 1113ZM573 1110Q573 1180 527 1228T410 1276Q339 1276 292
1228T244 1110Q244 1041 293 992T410 942Q477 942 525 991T573 1110Z" />
<glyph unicode="&#xb1;" horiz-adv-x="1124" d="M674 707V366H450V707H49V930H450V1270H674V930H1076V707H674ZM1076 223V0H49V223H1076Z" />
<glyph unicode="&#xb2;" horiz-adv-x="682" d="M639 832V694H53L51 815Q80 876 133 928T277 1040Q363 1096 395 1132T428 1208Q428 1254 408 1276T347 1299Q304 1299 281 1275T252 1201L58 1206Q71 1305 147 1365T347 1426Q478 1426 552 1371T626 1216Q626 1091
473 993Q421 960 386 936T332 896Q293 865 277 832H639Z" />
<glyph unicode="&#xb3;" horiz-adv-x="682" d="M638 895Q638 796 563 740T350 684Q215 684 136 736T44 892L233 904Q244 811 347 811Q449 811 449 907Q449 1000 310 1000H254V1126H305Q368 1126 400 1149T432 1216Q432 1255 409 1277T343 1299Q299 1299 275 1277T245
1210L59 1222Q70 1316 146 1371T348 1426Q476 1426 547 1375T619 1238Q619 1174 583 1129T467 1067V1065Q550 1056 594 1010T638 895Z" />
<glyph unicode="&#xb4;" horiz-adv-x="682" d="M597 1459L257 1183H87V1214L339 1502H597V1459Z" />
<glyph unicode="&#xb5;" horiz-adv-x="1229" d="M134 -426V1082H415V477Q415 327 457 260T590 193Q679 193 723 269T768 504V1082H1049L1047 320Q1047 229 1067 195T1136 160Q1168 160 1198 166V14Q1146 1 1109 -5T1018 -12Q912 -12 862 32T801 178H795Q762 66
706 23T571 -20Q519 -20 479 4T415 70V-426H134Z" />
<glyph unicode="&#xb6;" horiz-adv-x="1139" d="M589 1266V-264H434V694Q265 694 168 786T71 1049Q71 1218 169 1313T442 1409H1071V1266H940V-264H784V1266H589Z" />
<glyph unicode="&#xb7;" horiz-adv-x="682" d="M429 836V531H141V836H429Z" />
<glyph unicode="&#xb8;" horiz-adv-x="682" d="M500 -235Q500 -329 422 -377T197 -425Q152 -425 96 -419V-301Q128 -308 180 -308Q317 -308 317 -239Q317 -204 289 -187T195 -170Q176 -170 163 -170T143 -172L205 0H348L315 -82Q409 -87 454 -128T500 -235Z" />
<glyph unicode="&#xb9;" horiz-adv-x="682" d="M618 815V694H82V815H266V1283L93 1175V1297L273 1414H448V815H618Z" />
<glyph unicode="&#xba;" horiz-adv-x="748" d="M713 1073Q713 911 624 818T375 725Q223 725 134 817T45 1073Q45 1235 133 1327T379 1419Q539 1419 626 1330T713 1073ZM513 1073Q513 1179 484 1227T381 1276Q308 1276 276 1227T243 1073Q243 967 275 916T374 865Q449
865 481 915T513 1073Z" />
<glyph unicode="&#xbb;" horiz-adv-x="1139" d="M790 141H552V176L808 537L554 903V940H790L1048 573V502L790 141ZM333 141H93V176L349 537L95 903V940H333L589 573V502L333 141Z" />
<glyph unicode="&#xbc;" horiz-adv-x="1708" d="M630 815V694H94V815H278V1283L105 1175V1297L285 1414H460V815H630ZM1439 1409L544 0H343L1238 1409H1439ZM1508 141V1H1325V141H981V289L1297 721H1508V281H1611V141H1508ZM1329 583Q1307 546 1293 521T1264 475L1123
281H1325V475Q1325 502 1326 529T1329 583Z" />
<glyph unicode="&#xbd;" horiz-adv-x="1708" d="M630 815V694H94V815H278V1283L105 1175V1297L285 1414H460V815H630ZM1419 1409L524 0H323L1218 1409H1419ZM1612 137V-1H1026L1024 120Q1053 181 1106 233T1250 345Q1336 401 1368 437T1401 513Q1401 559 1381
581T1320 604Q1277 604 1254 580T1225 506L1031 511Q1044 610 1120 670T1320 731Q1451 731 1525 676T1599 521Q1599 396 1446 298Q1394 265 1359 241T1305 201Q1266 170 1250 137H1612Z" />
<glyph unicode="&#xbe;" horiz-adv-x="1708" d="M1439 1409L544 0H343L1238 1409H1439ZM1508 141V1H1325V141H981V289L1297 721H1508V281H1611V141H1508ZM1329 583Q1307 546 1293 521T1264 475L1123 281H1325V475Q1325 502 1326 529T1329 583ZM697 895Q697 796
622 740T409 684Q274 684 195 736T103 892L292 904Q303 811 406 811Q508 811 508 907Q508 1000 369 1000H313V1126H364Q427 1126 459 1149T491 1216Q491 1255 468 1277T402 1299Q358 1299 334 1277T304 1210L118 1222Q129 1316 205 1371T407 1426Q535 1426 606
1375T678 1238Q678 1174 642 1129T526 1067V1065Q609 1056 653 1010T697 895Z" />
<glyph unicode="&#xbf;" horiz-adv-x="1251" d="M809 1082V812H520V1082H809ZM114 56Q114 153 157 230T320 392L397 447Q528 543 534 656H801Q797 588 773 530T703 422T592 325Q521 275 478 235T416 155T397 68Q397 -20 454 -71T618 -122Q719 -122 787 -63T868
93L1153 81Q1126 -122 986 -235T622 -348Q385 -348 250 -241T114 56Z" />
<glyph unicode="&#xc0;" horiz-adv-x="1479" d="M471 360L346 0H51L565 1409H913L1425 0H1133L1008 360H471ZM739 1192Q729 1152 711 1096T685 1017L537 582H942L790 1026Q776 1067 764 1109T739 1192ZM938 1561V1530H769L429 1772V1815H687L938 1561Z" />
<glyph unicode="&#xc1;" horiz-adv-x="1479" d="M471 360L346 0H51L565 1409H913L1425 0H1133L1008 360H471ZM739 1192Q729 1152 711 1096T685 1017L537 582H942L790 1026Q776 1067 764 1109T739 1192ZM1083 1772L743 1530H573V1561L825 1815H1083V1772Z" />
<glyph unicode="&#xc2;" horiz-adv-x="1479" d="M471 360L346 0H51L565 1409H913L1425 0H1133L1008 360H471ZM739 1192Q729 1152 711 1096T685 1017L537 582H942L790 1026Q776 1067 764 1109T739 1192ZM370 1530V1559L628 1835H857L1107 1559V1530H948L745 1681H741L530
1530H370Z" />
<glyph unicode="&#xc3;" horiz-adv-x="1479" d="M471 360L346 0H51L565 1409H913L1425 0H1133L1008 360H471ZM739 1192Q729 1152 711 1096T685 1017L537 582H942L790 1026Q776 1067 764 1109T739 1192ZM905 1530Q862 1530 818 1550T729 1594Q689 1617 652 1635T583
1653Q542 1653 521 1630T485 1530H348Q359 1697 417 1760T573 1823Q614 1823 658 1804T744 1762Q787 1739 825 1720T894 1700Q934 1700 956 1724T993 1823H1128Q1121 1666 1065 1598T905 1530Z" />
<glyph unicode="&#xc4;" horiz-adv-x="1479" d="M471 360L346 0H51L565 1409H913L1425 0H1133L1008 360H471ZM739 1192Q729 1152 711 1096T685 1017L537 582H942L790 1026Q776 1067 764 1109T739 1192ZM1065 1749V1530H868V1749H1065ZM608 1749V1530H414V1749H608Z" />
<glyph unicode="&#xc5;" horiz-adv-x="1479" d="M471 360L346 0H51L565 1409H913L1425 0H1133L1008 360H471ZM739 1192Q729 1152 711 1096T685 1017L537 582H942L790 1026Q776 1067 764 1109T739 1192ZM993 1552Q993 1482 960 1425T869 1333T739 1298Q668 1298
610 1332T519 1424T485 1552Q485 1622 519 1679T611 1771T739 1806Q809 1806 866 1772T958 1680T993 1552ZM866 1552Q866 1603 830 1640T739 1677Q688 1677 651 1641T614 1552Q614 1496 651 1460T739 1424Q792 1424 829 1461T866 1552Z" />
<glyph unicode="&#xc6;" horiz-adv-x="2048" d="M481 360L309 0H4L704 1409H1927V1182H1226V827H1865V606H1226V227H1968V0H931V360H481ZM583 582H931V1192H870L583 582Z" />
<glyph unicode="&#xc7;" horiz-adv-x="1479" d="M795 212Q1063 212 1166 480L1423 383Q1340 179 1180 80T795 -20Q569 -20 410 66T168 317T84 711Q84 943 164 1103T400 1346T782 1430Q1030 1430 1186 1331T1405 1038L1145 967Q1112 1073 1016 1135T788 1198Q588
1198 485 1074T381 711Q381 549 428 438T568 270T795 212ZM989 -235Q989 -329 911 -377T686 -425Q641 -425 585 -419V-301Q617 -308 669 -308Q806 -308 806 -239Q806 -204 778 -187T684 -170Q665 -170 652 -170T632 -172L694 0H837L804 -82Q898 -87 943 -128T989
-235Z" />
<glyph unicode="&#xc8;" horiz-adv-x="1366" d="M1286 228V0H137V1409H1245V1181H432V827H1184V599H432V228H1286ZM905 1561V1530H736L396 1772V1815H654L905 1561Z" />
<glyph unicode="&#xc9;" horiz-adv-x="1366" d="M1286 228V0H137V1409H1245V1181H432V827H1184V599H432V228H1286ZM1027 1772L687 1530H517V1561L769 1815H1027V1772Z" />
<glyph unicode="&#xca;" horiz-adv-x="1366" d="M1286 228V0H137V1409H1245V1181H432V827H1184V599H432V228H1286ZM344 1530V1559L602 1835H831L1081 1559V1530H922L719 1681H715L504 1530H344Z" />
<glyph unicode="&#xcb;" horiz-adv-x="1366" d="M1286 228V0H137V1409H1245V1181H432V827H1184V599H432V228H1286ZM1037 1749V1530H840V1749H1037ZM580 1749V1530H386V1749H580Z" />
<glyph unicode="&#xcc;" horiz-adv-x="569" d="M432 1409V0H137V1409H432ZM725 1561V1530H556L216 1772V1815H474L725 1561Z" />
<glyph unicode="&#xcd;" horiz-adv-x="569" d="M432 1409V0H137V1409H432ZM614 1772L274 1530H104V1561L356 1815H614V1772Z" />
<glyph unicode="&#xce;" horiz-adv-x="569" d="M432 1409V0H137V1409H432ZM171 1530V1559L429 1835H658L908 1559V1530H749L546 1681H542L331 1530H171Z" />
<glyph unicode="&#xcf;" horiz-adv-x="569" d="M432 1409V0H137V1409H432ZM866 1749V1530H669V1749H866ZM409 1749V1530H215V1749H409Z" />
<glyph unicode="&#xd0;" horiz-adv-x="1479" d="M1393 715Q1393 490 1306 330T1064 85T707 0H137V594H8V813H137V1409H647Q1003 1409 1198 1230T1393 715ZM1096 715Q1096 940 979 1059T641 1178H432V813H788V594H432V231H682Q810 231 902 289T1045 456T1096 715Z" />
<glyph unicode="&#xd1;" horiz-adv-x="1479" d="M399 831V0H137V1409H474L1097 315Q1079 467 1079 590V1409H1341V0H995L381 1085Q390 1006 394 943T399 831ZM906 1530Q863 1530 819 1550T730 1594Q690 1617 653 1635T584 1653Q543 1653 522 1630T486 1530H349Q360
1697 418 1760T574 1823Q615 1823 659 1804T745 1762Q788 1739 826 1720T895 1700Q935 1700 957 1724T994 1823H1129Q1122 1666 1066 1598T906 1530Z" />
<glyph unicode="&#xd2;" horiz-adv-x="1593" d="M1507 711Q1507 491 1419 327T1170 71T793 -20Q572 -20 413 68T169 321T84 711Q84 937 168 1098T412 1344T795 1430Q1019 1430 1178 1344T1422 1096T1507 711ZM1206 711Q1206 939 1098 1068T795 1198Q597 1198 489
1070T381 711Q381 557 431 445T573 273T793 212Q991 212 1098 342T1206 711ZM1056 1561V1530H887L547 1772V1815H805L1056 1561Z" />
<glyph unicode="&#xd3;" horiz-adv-x="1593" d="M1507 711Q1507 491 1419 327T1170 71T793 -20Q572 -20 413 68T169 321T84 711Q84 937 168 1098T412 1344T795 1430Q1019 1430 1178 1344T1422 1096T1507 711ZM1206 711Q1206 939 1098 1068T795 1198Q597 1198 489
1070T381 711Q381 557 431 445T573 273T793 212Q991 212 1098 342T1206 711ZM1135 1772L795 1530H625V1561L877 1815H1135V1772Z" />
<glyph unicode="&#xd4;" horiz-adv-x="1593" d="M1507 711Q1507 491 1419 327T1170 71T793 -20Q572 -20 413 68T169 321T84 711Q84 937 168 1098T412 1344T795 1430Q1019 1430 1178 1344T1422 1096T1507 711ZM1206 711Q1206 939 1098 1068T795 1198Q597 1198 489
1070T381 711Q381 557 431 445T573 273T793 212Q991 212 1098 342T1206 711ZM426 1530V1559L684 1835H913L1163 1559V1530H1004L801 1681H797L586 1530H426Z" />
<glyph unicode="&#xd5;" horiz-adv-x="1593" d="M1507 711Q1507 491 1419 327T1170 71T793 -20Q572 -20 413 68T169 321T84 711Q84 937 168 1098T412 1344T795 1430Q1019 1430 1178 1344T1422 1096T1507 711ZM1206 711Q1206 939 1098 1068T795 1198Q597 1198 489
1070T381 711Q381 557 431 445T573 273T793 212Q991 212 1098 342T1206 711ZM954 1530Q911 1530 867 1550T778 1594Q738 1617 701 1635T632 1653Q591 1653 570 1630T534 1530H397Q408 1697 466 1760T622 1823Q663 1823 707 1804T793 1762Q836 1739 874 1720T943
1700Q983 1700 1005 1724T1042 1823H1177Q1170 1666 1114 1598T954 1530Z" />
<glyph unicode="&#xd6;" horiz-adv-x="1593" d="M1507 711Q1507 491 1419 327T1170 71T793 -20Q572 -20 413 68T169 321T84 711Q84 937 168 1098T412 1344T795 1430Q1019 1430 1178 1344T1422 1096T1507 711ZM1206 711Q1206 939 1098 1068T795 1198Q597 1198 489
1070T381 711Q381 557 431 445T573 273T793 212Q991 212 1098 342T1206 711ZM1120 1749V1530H923V1749H1120ZM663 1749V1530H469V1749H663Z" />
<glyph unicode="&#xd7;" horiz-adv-x="1196" d="M600 526L244 168L86 326L442 684L90 1036L248 1192L600 842L952 1194L1110 1036L758 682L1110 332L952 172L600 526Z" />
<glyph unicode="&#xd8;" horiz-adv-x="1593" d="M1508 711Q1508 490 1420 326T1172 71T793 -20Q582 -20 433 57L342 -72L147 -73L301 145Q84 341 84 711Q84 937 168 1098T412 1344T795 1430Q992 1430 1149 1356L1231 1473H1424L1282 1270Q1394 1176 1451 1034T1508
711ZM381 711Q381 507 465 379L1004 1147Q913 1198 795 1198Q597 1198 489 1070T381 711ZM1207 711Q1207 913 1121 1038L580 266Q671 211 793 211Q992 211 1099 341T1207 711Z" />
<glyph unicode="&#xd9;" horiz-adv-x="1479" d="M723 -20Q529 -20 395 43T192 229T123 528V1409H418V551Q418 384 497 298T731 211Q889 211 974 301T1059 561V1409H1354V543Q1354 365 1280 239T1064 47T723 -20ZM925 1561V1530H756L416 1772V1815H674L925 1561Z" />
<glyph unicode="&#xda;" horiz-adv-x="1479" d="M723 -20Q529 -20 395 43T192 229T123 528V1409H418V551Q418 384 497 298T731 211Q889 211 974 301T1059 561V1409H1354V543Q1354 365 1280 239T1064 47T723 -20ZM1102 1772L762 1530H592V1561L844 1815H1102V1772Z" />
<glyph unicode="&#xdb;" horiz-adv-x="1479" d="M723 -20Q529 -20 395 43T192 229T123 528V1409H418V551Q418 384 497 298T731 211Q889 211 974 301T1059 561V1409H1354V543Q1354 365 1280 239T1064 47T723 -20ZM368 1530V1559L626 1835H855L1105 1559V1530H946L743
1681H739L528 1530H368Z" />
<glyph unicode="&#xdc;" horiz-adv-x="1479" d="M723 -20Q529 -20 395 43T192 229T123 528V1409H418V551Q418 384 497 298T731 211Q889 211 974 301T1059 561V1409H1354V543Q1354 365 1280 239T1064 47T723 -20ZM1064 1749V1530H867V1749H1064ZM607 1749V1530H413V1749H607Z"
/>
<glyph unicode="&#xdd;" horiz-adv-x="1366" d="M831 578V0H537V578L35 1409H344L682 813L1024 1409H1333L831 578ZM1034 1772L694 1530H524V1561L776 1815H1034V1772Z" />
<glyph unicode="&#xde;" horiz-adv-x="1366" d="M1296 737Q1296 604 1234 502T1057 341T782 283H432V0H137V1409H432V1176H770Q1024 1176 1160 1063T1296 737ZM999 733Q999 843 934 905T737 967H432V492H745Q866 492 932 555T999 733Z" />
<glyph unicode="&#xdf;" horiz-adv-x="1251" d="M1193 312Q1193 150 1093 65T806 -20Q658 -20 544 23V229Q594 206 661 188T776 170Q857 170 894 204T931 296Q931 348 893 392T762 498Q677 553 635 618T593 760Q593 814 620 861T705 958Q766 1012 791 1052T816
1138Q816 1203 770 1242T635 1281Q532 1281 478 1218T424 1013V0H143V1007Q143 1241 270 1362T638 1484Q844 1484 963 1394T1082 1149Q1082 1067 1048 1012T970 915Q946 893 920 870T875 825T857 782Q857 766 863 753T904 711T1025 618Q1193 494 1193 312Z" />
<glyph unicode="&#xe0;" horiz-adv-x="1139" d="M641 -20Q484 -20 396 65T308 306Q308 474 417 561T735 652L968 656V711Q968 817 931 868T810 920Q732 920 696 885T650 767L357 781Q412 1102 822 1102Q1027 1102 1138 1001T1249 714V320Q1249 229 1269 195T1338
160Q1370 160 1400 166V14Q1348 1 1311 -5T1220 -12Q1114 -12 1064 40T1003 193H997Q938 87 849 34T641 -20ZM968 501L824 499Q725 494 685 478Q644 460 623 424T601 328Q601 251 636 214T731 176Q797 176 852 212Q906 248 937 311T968 446V501ZM749 1214V1183H580L240
1459V1502H498L749 1214Z" />
<glyph unicode="&#xe1;" horiz-adv-x="1139" d="M641 -20Q484 -20 396 65T308 306Q308 474 417 561T735 652L968 656V711Q968 817 931 868T810 920Q732 920 696 885T650 767L357 781Q412 1102 822 1102Q1027 1102 1138 1001T1249 714V320Q1249 229 1269 195T1338
160Q1370 160 1400 166V14Q1348 1 1311 -5T1220 -12Q1114 -12 1064 40T1003 193H997Q938 87 849 34T641 -20ZM968 501L824 499Q725 494 685 478Q644 460 623 424T601 328Q601 251 636 214T731 176Q797 176 852 212Q906 248 937 311T968 446V501ZM885 1459L545 1183H375V1214L627
1502H885V1459Z" />
<glyph unicode="&#xe2;" horiz-adv-x="1139" d="M641 -20Q484 -20 396 65T308 306Q308 474 417 561T735 652L968 656V711Q968 817 931 868T810 920Q732 920 696 885T650 767L357 781Q412 1102 822 1102Q1027 1102 1138 1001T1249 714V320Q1249 229 1269 195T1338
160Q1370 160 1400 166V14Q1348 1 1311 -5T1220 -12Q1114 -12 1064 40T1003 193H997Q938 87 849 34T641 -20ZM968 501L824 499Q725 494 685 478Q644 460 623 424T601 328Q601 251 636 214T731 176Q797 176 852 212Q906 248 937 311T968 446V501ZM199 1183V1211L457
1529H686L936 1211V1183H777L574 1375H570L359 1183H199Z" />
<glyph unicode="&#xe3;" horiz-adv-x="1139" d="M641 -20Q484 -20 396 65T308 306Q308 474 417 561T735 652L968 656V711Q968 817 931 868T810 920Q732 920 696 885T650 767L357 781Q412 1102 822 1102Q1027 1102 1138 1001T1249 714V320Q1249 229 1269 195T1338
160Q1370 160 1400 166V14Q1348 1 1311 -5T1220 -12Q1114 -12 1064 40T1003 193H997Q938 87 849 34T641 -20ZM968 501L824 499Q725 494 685 478Q644 460 623 424T601 328Q601 251 636 214T731 176Q797 176 852 212Q906 248 937 311T968 446V501ZM719 1183Q680 1183
639 1200T557 1240Q513 1264 472 1285T397 1306Q356 1306 335 1283T299 1183H162Q173 1355 231 1415T387 1476Q432 1476 479 1455T571 1408Q610 1386 645 1370T708 1353Q748 1353 770 1377T807 1476H942Q935 1319 879 1251T719 1183Z" />
<glyph unicode="&#xe4;" horiz-adv-x="1139" d="M641 -20Q484 -20 396 65T308 306Q308 474 417 561T735 652L968 656V711Q968 817 931 868T810 920Q732 920 696 885T650 767L357 781Q412 1102 822 1102Q1027 1102 1138 1001T1249 714V320Q1249 229 1269 195T1338
160Q1370 160 1400 166V14Q1348 1 1311 -5T1220 -12Q1114 -12 1064 40T1003 193H997Q938 87 849 34T641 -20ZM968 501L824 499Q725 494 685 478Q644 460 623 424T601 328Q601 251 636 214T731 176Q797 176 852 212Q906 248 937 311T968 446V501ZM882 1418V1199H665V1418H882ZM445
1418V1199H231V1418H445Z" />
<glyph unicode="&#xe5;" horiz-adv-x="1139" d="M641 -20Q484 -20 396 65T308 306Q308 474 417 561T735 652L968 656V711Q968 817 931 868T810 920Q732 920 696 885T650 767L357 781Q412 1102 822 1102Q1027 1102 1138 1001T1249 714V320Q1249 229 1269 195T1338
160Q1370 160 1400 166V14Q1348 1 1311 -5T1220 -12Q1114 -12 1064 40T1003 193H997Q938 87 849 34T641 -20ZM968 501L824 499Q725 494 685 478Q644 460 623 424T601 328Q601 251 636 214T731 176Q797 176 852 212Q906 248 937 311T968 446V501ZM813 1431Q813 1361
780 1304T689 1212T559 1177Q488 1177 430 1211T339 1303T305 1431Q305 1501 339 1558T431 1650T559 1685Q629 1685 686 1651T778 1559T813 1431ZM686 1431Q686 1482 650 1519T559 1556Q508 1556 471 1520T434 1431Q434 1375 471 1339T559 1303Q612 1303 649 1340T686
1431Z" />
<glyph unicode="&#xe6;" horiz-adv-x="1821" d="M1720 274Q1605 -20 1253 -20Q943 -20 819 209Q752 94 649 37T406 -20Q245 -20 156 66T66 306Q66 641 506 652L746 656V711Q746 819 706 869T578 920Q493 920 455 883T408 767L115 781Q141 938 259 1020T586 1102Q803
1102 919 995Q1050 1102 1257 1102Q1490 1102 1613 948T1736 495V476H1042Q1042 330 1101 249T1267 168Q1341 168 1388 200T1455 297L1720 274ZM1464 663Q1456 794 1401 859T1253 925Q1154 925 1101 856T1044 663H1464ZM359 328Q359 251 396 214T496 176Q565 176
623 215Q681 254 713 319T746 456V501L594 499Q491 495 447 478Q404 460 382 424T359 328Z" />
<glyph unicode="&#xe7;" horiz-adv-x="1139" d="M594 -20Q348 -20 214 126T80 535Q80 803 215 952T598 1102Q789 1102 914 1006T1071 741L788 727Q776 810 728 859T592 909Q483 909 429 819T375 546Q375 359 430 266T596 172Q676 172 730 222T797 373L1079 360Q1064
246 999 161T829 28T594 -20ZM791 -235Q791 -329 713 -377T488 -425Q443 -425 387 -419V-301Q419 -308 471 -308Q608 -308 608 -239Q608 -204 580 -187T486 -170Q467 -170 454 -170T434 -172L496 0H639L606 -82Q700 -87 745 -128T791 -235Z" />
<glyph unicode="&#xe8;" horiz-adv-x="1139" d="M375 487Q375 329 433 249T600 168Q674 168 721 200T788 297L1053 274Q938 -20 586 -20Q342 -20 211 124T80 546Q80 814 213 958T590 1102Q823 1102 946 948T1069 495V487H375ZM797 663Q789 794 734 859T586 925Q487
925 434 856T377 663H797ZM796 1214V1183H627L287 1459V1502H545L796 1214Z" />
<glyph unicode="&#xe9;" horiz-adv-x="1139" d="M375 487Q375 329 433 249T600 168Q674 168 721 200T788 297L1053 274Q938 -20 586 -20Q342 -20 211 124T80 546Q80 814 213 958T590 1102Q823 1102 946 948T1069 495V487H375ZM797 663Q789 794 734 859T586 925Q487
925 434 856T377 663H797ZM928 1459L588 1183H418V1214L670 1502H928V1459Z" />
<glyph unicode="&#xea;" horiz-adv-x="1139" d="M375 487Q375 329 433 249T600 168Q674 168 721 200T788 297L1053 274Q938 -20 586 -20Q342 -20 211 124T80 546Q80 814 213 958T590 1102Q823 1102 946 948T1069 495V487H375ZM797 663Q789 794 734 859T586 925Q487
925 434 856T377 663H797ZM223 1183V1211L481 1529H710L960 1211V1183H801L598 1375H594L383 1183H223Z" />
<glyph unicode="&#xeb;" horiz-adv-x="1139" d="M375 487Q375 329 433 249T600 168Q674 168 721 200T788 297L1053 274Q938 -20 586 -20Q342 -20 211 124T80 546Q80 814 213 958T590 1102Q823 1102 946 948T1069 495V487H375ZM797 663Q789 794 734 859T586 925Q487
925 434 856T377 663H797ZM911 1418V1199H694V1418H911ZM474 1418V1199H260V1418H474Z" />
<glyph unicode="&#xec;" horiz-adv-x="569" d="M426 1082V0H145V1082H426ZM445 1214V1183H276L-64 1459V1502H194L445 1214Z" />
<glyph unicode="&#xed;" horiz-adv-x="569" d="M426 1082V0H145V1082H426ZM624 1459L284 1183H114V1214L366 1502H624V1459Z" />
<glyph unicode="&#xee;" horiz-adv-x="569" d="M426 1082V0H145V1082H426ZM173 1183V1211L431 1529H660L910 1211V1183H751L548 1375H544L333 1183H173Z" />
<glyph unicode="&#xef;" horiz-adv-x="569" d="M426 1082V0H145V1082H426ZM867 1418V1199H650V1418H867ZM430 1418V1199H216V1418H430Z" />
<glyph unicode="&#xf0;" horiz-adv-x="1251" d="M623 -18Q372 -18 226 115T80 479Q80 711 224 842T627 973Q731 973 790 941Q726 1076 640 1176L348 1054V1238L514 1308Q470 1343 406 1387T256 1484H549Q646 1436 709 1390L977 1503V1315L856 1266Q1014 1106 1092
925T1171 541Q1171 277 1027 130T623 -18ZM877 477Q877 637 814 708T631 780Q503 780 439 705T375 477Q375 329 437 251T618 172Q743 172 810 244T877 477Z" />
<glyph unicode="&#xf1;" horiz-adv-x="1251" d="M424 580V0H143V840Q143 927 141 982T135 1082H403Q405 1070 408 1026T413 935T416 867H420Q477 991 563 1047T768 1103Q940 1103 1032 997T1124 687V0H844V607Q844 750 796 821T651 892Q549 892 487 805T424 580ZM809
1183Q770 1183 729 1200T647 1240Q603 1264 562 1285T487 1306Q446 1306 425 1283T389 1183H252Q263 1355 321 1415T477 1476Q522 1476 569 1455T661 1408Q700 1386 735 1370T798 1353Q838 1353 860 1377T897 1476H1032Q1025 1319 969 1251T809 1183Z" />
<glyph unicode="&#xf2;" horiz-adv-x="1251" d="M1171 542Q1171 279 1025 130T621 -20Q368 -20 224 130T80 542Q80 803 224 952T627 1102Q892 1102 1031 958T1171 542ZM877 542Q877 735 814 822T631 909Q503 909 439 818T375 542Q375 361 437 267T618 172Q748
172 812 264T877 542ZM837 1214V1183H668L328 1459V1502H586L837 1214Z" />
<glyph unicode="&#xf3;" horiz-adv-x="1251" d="M1171 542Q1171 279 1025 130T621 -20Q368 -20 224 130T80 542Q80 803 224 952T627 1102Q892 1102 1031 958T1171 542ZM877 542Q877 735 814 822T631 909Q503 909 439 818T375 542Q375 361 437 267T618 172Q748
172 812 264T877 542ZM975 1459L635 1183H465V1214L717 1502H975V1459Z" />
<glyph unicode="&#xf4;" horiz-adv-x="1251" d="M1171 542Q1171 279 1025 130T621 -20Q368 -20 224 130T80 542Q80 803 224 952T627 1102Q892 1102 1031 958T1171 542ZM877 542Q877 735 814 822T631 909Q503 909 439 818T375 542Q375 361 437 267T618 172Q748
172 812 264T877 542ZM256 1183V1211L514 1529H743L993 1211V1183H834L631 1375H627L416 1183H256Z" />
<glyph unicode="&#xf5;" horiz-adv-x="1251" d="M1171 542Q1171 279 1025 130T621 -20Q368 -20 224 130T80 542Q80 803 224 952T627 1102Q892 1102 1031 958T1171 542ZM877 542Q877 735 814 822T631 909Q503 909 439 818T375 542Q375 361 437 267T618 172Q748
172 812 264T877 542ZM791 1183Q752 1183 711 1200T629 1240Q585 1264 544 1285T469 1306Q428 1306 407 1283T371 1183H234Q245 1355 303 1415T459 1476Q504 1476 551 1455T643 1408Q682 1386 717 1370T780 1353Q820 1353 842 1377T879 1476H1014Q1007 1319 951
1251T791 1183Z" />
<glyph unicode="&#xf6;" horiz-adv-x="1251" d="M1171 542Q1171 279 1025 130T621 -20Q368 -20 224 130T80 542Q80 803 224 952T627 1102Q892 1102 1031 958T1171 542ZM877 542Q877 735 814 822T631 909Q503 909 439 818T375 542Q375 361 437 267T618 172Q748
172 812 264T877 542ZM951 1418V1199H734V1418H951ZM514 1418V1199H300V1418H514Z" />
<glyph unicode="&#xf7;" horiz-adv-x="1124" d="M680 1194V961H442V1194H680ZM1076 793V569H49V793H1076ZM680 403V170H442V403H680Z" />
<glyph unicode="&#xf8;" horiz-adv-x="1251" d="M1171 542Q1171 279 1025 130T621 -20Q430 -20 297 69L184 -55H1L198 160Q80 305 80 542Q80 803 224 952T627 1102Q826 1102 957 1019L1058 1133H1242L1058 927Q1171 784 1171 542ZM375 542Q375 452 392 379L799
840Q739 909 631 909Q503 909 439 818T375 542ZM877 542Q877 639 861 704L454 244Q516 172 618 172Q748 172 812 264T877 542Z" />
<glyph unicode="&#xf9;" horiz-adv-x="1251" d="M831 215Q775 92 689 36T483 -20Q311 -20 219 85T127 395V1082H408V475Q408 333 456 262T600 190Q702 190 764 277T827 502V1082H1108V242Q1108 173 1110 113T1116 0H848Q842 72 839 126T836 215H831ZM792 1214V1183H623L283
1459V1502H541L792 1214Z" />
<glyph unicode="&#xfa;" horiz-adv-x="1251" d="M831 215Q775 92 689 36T483 -20Q311 -20 219 85T127 395V1082H408V475Q408 333 456 262T600 190Q702 190 764 277T827 502V1082H1108V242Q1108 173 1110 113T1116 0H848Q842 72 839 126T836 215H831ZM973 1459L633
1183H463V1214L715 1502H973V1459Z" />
<glyph unicode="&#xfb;" horiz-adv-x="1251" d="M831 215Q775 92 689 36T483 -20Q311 -20 219 85T127 395V1082H408V475Q408 333 456 262T600 190Q702 190 764 277T827 502V1082H1108V242Q1108 173 1110 113T1116 0H848Q842 72 839 126T836 215H831ZM252 1183V1211L510
1529H739L989 1211V1183H830L627 1375H623L412 1183H252Z" />
<glyph unicode="&#xfc;" horiz-adv-x="1251" d="M831 215Q775 92 689 36T483 -20Q311 -20 219 85T127 395V1082H408V475Q408 333 456 262T600 190Q702 190 764 277T827 502V1082H1108V242Q1108 173 1110 113T1116 0H848Q842 72 839 126T836 215H831ZM949 1418V1199H732V1418H949ZM512
1418V1199H298V1418H512Z" />
<glyph unicode="&#xfd;" horiz-adv-x="1139" d="M283 -425Q180 -425 106 -412V-212Q162 -220 203 -220Q301 -220 349 -167T444 11L16 1082H313L483 575Q503 520 528 437T584 241Q607 333 628 411T674 571L834 1082H1128L700 -57Q674 -126 645 -179T586 -273Q525
-356 453 -390T283 -425ZM923 1459L583 1183H413V1214L665 1502H923V1459Z" />
<glyph unicode="&#xfe;" horiz-adv-x="1251" d="M424 -10V-425H143V1484H424V1022Q424 980 423 938T420 854H424Q471 954 558 1003T770 1053Q961 1053 1064 913T1167 520Q1167 263 1059 122T752 -20Q517 -20 424 172H418Q424 142 424 -10ZM874 520Q874 692 819
775T651 858Q538 858 479 767T420 512Q420 349 479 261T649 172Q762 172 818 259T874 520Z" />
<glyph unicode="&#xff;" horiz-adv-x="1139" d="M283 -425Q180 -425 106 -412V-212Q162 -220 203 -220Q301 -220 349 -167T444 11L16 1082H313L483 575Q503 520 528 437T584 241Q607 333 628 411T674 571L834 1082H1128L700 -57Q674 -126 645 -179T586 -273Q525
-356 453 -390T283 -425ZM908 1418V1199H691V1418H908ZM471 1418V1199H257V1418H471Z" />
<glyph unicode="&#x2013;" horiz-adv-x="1139" d="M1076 651V448H62V651H1076Z" />
<glyph unicode="&#x2014;" horiz-adv-x="2048" d="M2048 651V448H0V651H2048Z" />
<glyph unicode="&#x2018;" horiz-adv-x="569" d="M426 1092V831H139V1026Q139 1147 165 1239T247 1409H430Q368 1331 334 1248T299 1092H426Z" />
<glyph unicode="&#x2019;" horiz-adv-x="569" d="M430 1214Q430 1093 406 1004T321 831H139Q270 1000 270 1149H143V1409H430V1214Z" />
<glyph unicode="&#x201a;" horiz-adv-x="569" d="M431 66Q431 -54 406 -146T323 -317H138Q201 -241 236 -157T272 0H143V260H431V66Z" />
<glyph unicode="&#x201c;" horiz-adv-x="1024" d="M868 1092V831H579V1026Q579 1150 606 1241T690 1409H872Q810 1331 776 1248T741 1092H868ZM438 1092V831H151V1026Q151 1147 177 1239T259 1409H442Q380 1331 346 1248T311 1092H438Z" />
<glyph unicode="&#x201d;" horiz-adv-x="1024" d="M872 1217Q872 1096 847 1004T763 831H579Q712 998 712 1149H585V1409H872V1217ZM442 1217Q442 1092 417 1003T333 831H151Q282 1000 282 1149H155V1409H442V1217Z" />
<glyph unicode="&#x201e;" horiz-adv-x="1024" d="M872 66Q872 -54 846 -146T763 -317H579Q638 -246 675 -161T712 0H585V260H872V66ZM442 66Q442 -58 417 -147T333 -317H151Q213 -239 247 -156T282 0H155V260H442V66Z" />
<glyph unicode="&#x2022;" horiz-adv-x="717" d="M651 676Q651 596 611 529T504 421T356 381Q277 381 211 421T105 528T65 676Q65 758 104 824T210 929T356 969Q438 969 504 930T611 824T651 676Z" />
<glyph unicode="&#x2039;" horiz-adv-x="682" d="M588 176V141H350L92 502V573L350 940H586V903L332 537L588 176Z" />
<glyph unicode="&#x203a;" horiz-adv-x="682" d="M93 141V176L349 537L95 903V940H333L589 573V502L333 141H93Z" />
</font>
</defs>
</svg>
